Это интересно Скрыть

Tutnet-fufla

Объявление

Информация о пользователе

Привет, Гость! Войдите или зарегистрируйтесь.


Вы здесь » Tutnet-fufla » Шансон в форм. lossless » (24/96) Иван Кучин (1) - Черный ворон (кассета)


(24/96) Иван Кучин (1) - Черный ворон (кассета)

Сообщений 1 страница 3 из 3

1

Нет парни я не украл данный ревлиз
а приватизировал у спившигося негодяя с вт который
называет себя Админ. муз. груп. ДМИТРИЙ - СРУЛЬ
он банит и оскорбляет польз. проваципуя на оскорбления и мат.... .
Он никогда не был Админ. ВТ это спившийся самозванец.....
дорвавшийся до власти...
Этого негодяя гонят со всех муз. ресурсов.
Это не оговор - это правда..


(24/96) Иван Кучин (1) - Черный ворон (кассета)

http://i66.fastpic.ru/thumb/2014/1128/c4/25d3113ebe3df1b1d7c6045fce7c4cc4.jpeg

http://i63.fastpic.ru/thumb/2014/1128/f0/5b097468aafd5c5a195f50c224b30cf0.jpeg

Оцифровка с кассеты Борис 63 Спасибо Боря....

Треклист:

01 Иван Кучин - Багульник
02 Иван Кучин - Фотокарточка
03 Иван Кучин - Родные места
04 Иван Кучин - Барыня
05 Иван Кучин - Спящий зверь
06 Иван Кучин - Черный ворон
07 Иван Кучин - Декабрьский друг
08 Иван Кучин - Гимназисточка
09 Иван Кучин - Конь вороной
10 Иван Кучин - Царь-Батюшка
11 Иван Кучин - Вожатая
12 Иван Кучин - Ностальгия
13 Иван Кучин - Русь Советская
14 Иван Кучин - На черных ресницах
15 Иван Кучин - Крестовая печать
16 Иван Кучин - Боль
17 Иван Кучин - Ах, январь мой
18 Иван Кучин - Тихий океан
19 Иван Кучин - Сентиментальный детектив - 1
20 Иван Кучин - Сентиментальный детектив - 2
21 Иван Кучин - Сентиментальный детектив - 3
22 Иван Кучин - На бокале муха
23 Иван Кучин - Ты сегодня уйдешь до развода (До свиданья, Друг!)

CUE:

Код:
REM GENRE "Shanson"
REM COMMENT "Оцифровка - Борис 63"
TITLE "Черный ворон"
PERFORMER "Иван Кучин"
FILE "1 сторона.flac" WAVE
  TRACK 01 AUDIO
TITLE "Багульник"
PERFORMER "Иван Кучин"
    INDEX 01 00:00:00
  TRACK 02 AUDIO
TITLE "Фотокарточка"
PERFORMER "Иван Кучин"
    INDEX 01 03:47:05
  TRACK 03 AUDIO
TITLE "Родные места"
PERFORMER "Иван Кучин"
    INDEX 01 07:33:05
  TRACK 04 AUDIO
TITLE "Барыня"
PERFORMER "Иван Кучин"
    INDEX 01 11:02:02
  TRACK 05 AUDIO
TITLE "Спящий зверь"
PERFORMER "Иван Кучин"
    INDEX 01 14:50:03
  TRACK 06 AUDIO
TITLE "Черный ворон"
PERFORMER "Иван Кучин"
    INDEX 01 18:39:07
  TRACK 07 AUDIO
TITLE "Декабрьский друг"
PERFORMER "Иван Кучин"
    INDEX 01 22:20:67
  TRACK 08 AUDIO
TITLE "Гимназисточка"
PERFORMER "Иван Кучин"
    INDEX 01 26:26:02
  TRACK 09 AUDIO
TITLE "Конь вороной"
PERFORMER "Иван Кучин"
    INDEX 01 30:21:06
  TRACK 10 AUDIO
TITLE "Царь-Батюшка"
PERFORMER "Иван Кучин"
    INDEX 01 33:55:59
  TRACK 11 AUDIO
TITLE "Вожатая"
PERFORMER "Иван Кучин"
    INDEX 01 37:52:58
FILE "2 сторона.flac" WAVE
  TRACK 12 AUDIO
TITLE "Ностальгия"
PERFORMER "Иван Кучин"
    INDEX 01 00:00:00
  TRACK 13 AUDIO
TITLE "Русь Советская"
PERFORMER "Иван Кучин"
    INDEX 01 03:28:58
  TRACK 14 AUDIO
TITLE "На черных ресницах"
PERFORMER "Иван Кучин"
    INDEX 01 06:24:25
  TRACK 15 AUDIO
TITLE "Крестовая печать"
PERFORMER "Иван Кучин"
    INDEX 01 09:49:60
  TRACK 16 AUDIO
TITLE "Боль"
PERFORMER "Иван Кучин"
    INDEX 01 14:04:66
  TRACK 17 AUDIO
TITLE "Ах, январь мой"
PERFORMER "Иван Кучин"
    INDEX 01 18:31:35
  TRACK 18 AUDIO
TITLE "Тихий океан"
PERFORMER "Иван Кучин"
    INDEX 01 20:55:30
  TRACK 19 AUDIO
TITLE "Сентиментальный детектив - 1"
PERFORMER "Иван Кучин"
    INDEX 01 24:12:67
  TRACK 20 AUDIO
TITLE "Сентиментальный детектив - 2"
PERFORMER "Иван Кучин"
    INDEX 01 27:47:01
  TRACK 21 AUDIO
TITLE "Сентиментальный детектив - 3"
PERFORMER "Иван Кучин"
    INDEX 01 31:18:64
  TRACK 22 AUDIO
TITLE "На бокале муха"
PERFORMER "Иван Кучин"
    INDEX 01 35:11:73
  TRACK 23 AUDIO
TITLE "Ты сегодня уйдешь до развода (До свиданья, Друг)"
PERFORMER "Иван Кучин"
    INDEX 01 37:33:53

FLAC:

1 сторона

https://yadi.sk/mail/?hash=r0G/ai73qjdPr5XeTP+ygtnli408Yf79MDRSRrTvAc0=

http://i68.fastpic.ru/big/2014/1128/e8/91cbed04346eef157e12a62a710282e8.png

А.И У вас есть права чтобы люди могли слушать музыку и не унижаться
перед спившимся негодяем дмитрием срулем

2 сторона

http://i68.fastpic.ru/big/2014/1128/e8/91cbed04346eef157e12a62a710282e8.png

https://yadi.sk/mail/?hash=GySdU7a3OvYSFE2sX0kKViYvWIDEtFroC1a3Feuxl84=

А.И У вас есть права чтобы люди могли слушать музыку и не унижаться
перед спившимся негодяем дмитрием срулем

mp3--320kbps:

http://i68.fastpic.ru/big/2014/1128/e8/91cbed04346eef157e12a62a710282e8.png

А.И У вас есть права чтобы люди могли слушать музыку и не унижаться
перед спившимся негодяем дмитриме срулем

https://yadi.sk/mail/?hash=+PPFPfIEdcTy5CuckkaP1NQf2FPhRqphsCX6elOsZLg=

0

2

Иван Леонидович Может и дойдут мои слова до Вас ...
Спасибо Вам .....

0

3

ребята качайте а то и это скоро продавать будут за деньги на вт

0


Вы здесь » Tutnet-fufla » Шансон в форм. lossless » (24/96) Иван Кучин (1) - Черный ворон (кассета)