Tutnet-fufla

Объявление

Введите здесь ваше объявление.

Информация о пользователе

Привет, Гость! Войдите или зарегистрируйтесь.


Вы здесь » Tutnet-fufla » Аркадий Северный Записи и концерты » (24/96) Северный и Анатолий Мезенцев с анс.ВСТРЕЧА - 1979 год


(24/96) Северный и Анатолий Мезенцев с анс.ВСТРЕЧА - 1979 год

Сообщений 1 страница 6 из 6

1

Нет парни я не украл данный ревлиз
а приватизировал у спившигося негодяя с вт который
называет себя Админ. муз. груп. ДМИТРИЙ - СРУЛЬ
он банит и оскорбляет польз. проваципуя на оскорбления и мат.... .
Он никогда не был Админ. ВТ это спившийся самозванец.....
дорвавшийся до власти...
Этого негодяя гонят со всех муз. ресурсов.
Это не оговор - это правда..

http://i63.fastpic.ru/big/2014/1208/2a/99466a918a173aad5d082439ad42422a.png

димуля пъянь сраная таким мудакам как ты полные конц. не дают

(24/96) Северный и Анатолий Мезенцев с анс.ВСТРЕЧА - 1979 год (отрывок концерта)

оцифровка с катушки

Треклист:

01 анс. Встреча - Бабье лето
02 анс. Встреча - Мой друг уехал в Магадан
03 анс. Встреча - Мне сегодня так больно
04 анс. Встреча - Налей-ка рюмку, Роза
05 анс. Встреча - Пой же пой на проклятой гитаре
06 анс. Встреча - Вот моё прощальное письмо
07 анс. Встреча - Здесь под небом чужим
08 анс. Встреча - Я родился у костра

СUE:

Код:
REM GENRE "Shanson"
REM DATE 1979
REM COMMENT "Оцифровка - Борис 63"
TITLE "Магнитоальбом"
PERFORMER "анс. Встреча"
FILE "анс.ВСТРЕЧА 1979.flac" WAVE
  TRACK 01 AUDIO
TITLE "Бабье лето"
PERFORMER "анс. Встреча"
    INDEX 01 00:02:06
  TRACK 02 AUDIO
TITLE "Мой друг уехал в Магадан"
PERFORMER "анс. Встреча"
    INDEX 01 02:06:67
  TRACK 03 AUDIO
TITLE "Мне сегодня так больно"
PERFORMER "анс. Встреча"
    INDEX 01 04:57:27
  TRACK 04 AUDIO
TITLE "Налей-ка рюмку, Роза"
PERFORMER "анс. Встреча"
    INDEX 01 08:03:66
  TRACK 05 AUDIO
TITLE "Пой же пой на проклятой гитаре"
PERFORMER "анс. Встреча"
    INDEX 01 11:54:60
  TRACK 06 AUDIO
TITLE "Вот моё прощальное письмо"
PERFORMER "анс. Встреча"
    INDEX 01 16:44:47
  TRACK 07 AUDIO
TITLE "Здесь под небом чужим"
PERFORMER "анс. Встреча"
    INDEX 01 21:16:17
  TRACK 08 AUDIO
TITLE "Я родился у костра"
PERFORMER "анс. Встреча"
    INDEX 01 24:47:25

ссылка

https://yadi.sk/mail/?hash=Xwjn03Vlx5ijnC4ScfamBJdERcys7ZAflmrkevWQV/Y=
__________________

[audio]http://rghost.ru/59488172[/audio]

http://rghost.ru/59488172

........................................................

димуля пъянь позаборная болт тебе в глотку по самые гланды
Ты погань обоссаная никогда не будешь слушать Аэлиту.

http://i65.fastpic.ru/big/2014/1208/10/23c4396199e363acb075b18af98e9910.png

0

2

А.И. Зачем вы всю эту срань выкладываете у  себя на  сайте,конц. не полный,качество рвотное,зачем обижать А.Северного,пусть оно там воняет где лежало.

0

3

2х2 Гость Я удалю .... Пусть люди почитают какой он лосл. пихает людям . Которые на трафике сидят .

0

4

Больно много вы внимания ему уделяете,пусть варятся,разберутся люди кто есть кто и с чем их едят.

0

5

из 27 треков выложил 8 ,спрашивается зачем?

0

6

2х2 Гость Как зачем ... - Чтоб говнотёрки раскачать

0


Вы здесь » Tutnet-fufla » Аркадий Северный Записи и концерты » (24/96) Северный и Анатолий Мезенцев с анс.ВСТРЕЧА - 1979 год