Tutnet-fufla

Объявление

Введите здесь ваше объявление.

Информация о пользователе

Привет, Гость! Войдите или зарегистрируйтесь.


Вы здесь » Tutnet-fufla » Шансон в форм. lossless » (24/96) Гр.Мамочка - 1991


(24/96) Гр.Мамочка - 1991

Сообщений 1 страница 2 из 2

1

Нет парни я не украл данный ревлиз
а приватизировал у спившигося негодяя с вт который
называет себя Админ. муз. груп. ДМИТРИЙ - СРУЛЬ
он банит и оскорбляет польз. проваципуя на оскорбления и мат.... .
Он никогда не был Админ. ВТ это спившийся самозванец.....
дорвавшийся до власти...
Этого негодяя гонят со всех муз. ресурсов.
Это не оговор - это правда..

(24/96) Гр.Мамочка - 1991

Оцифровка с катушки Борис 63 Спасибо....

Треклист:

01 группа Мамочка - Утром проснусь, на рассвете...
02 группа Мамочка - Ё-моё
03 группа Мамочка - Горит огнями южный порт
04 группа Мамочка - СПИД
05 группа Мамочка - Я мечтал побывать в самых тёплых морях...
06 группа Мамочка - Каждый вечер в 17-00
07 группа Мамочка - Я раненной птицей закружусь...
08 группа Мамочка - Я вспоминаю день...
09 группа Мамочка - Белым снегом запорошен сад
10 группа Мамочка - Не судьба...

CUE:

Код:
REM GENRE "Shanson"
REM DATE 1991
REM COMMENT "Оцифровка - Борис 63"
TITLE "Магнитоальбом"
PERFORMER "группа Мамочка"
FILE "гр.МАМОЧКА 1991.flac" WAVE
  TRACK 01 AUDIO
TITLE "Утром проснусь, на рассвете..."
PERFORMER "группа Мамочка"
    INDEX 01 00:02:21
  TRACK 02 AUDIO
TITLE "Ё-моё"
PERFORMER "группа Мамочка"
    INDEX 01 04:01:57
  TRACK 03 AUDIO
TITLE "Горит огнями южный порт"
PERFORMER "группа Мамочка"
    INDEX 01 11:04:39
  TRACK 04 AUDIO
TITLE "СПИД"
PERFORMER "группа Мамочка"
    INDEX 01 21:01:70
  TRACK 05 AUDIO
TITLE "Я мечтал побывать в самых тёплых морях..."
PERFORMER "группа Мамочка"
    INDEX 01 27:58:26
  TRACK 06 AUDIO
TITLE "Каждый вечер в 17-00"
PERFORMER "группа Мамочка"
    INDEX 01 32:11:12
  TRACK 07 AUDIO
TITLE "Я раненной птицей закружусь..."
PERFORMER "группа Мамочка"
    INDEX 01 35:52:25
  TRACK 08 AUDIO
TITLE "Я вспоминаю день..."
PERFORMER "группа Мамочка"
    INDEX 01 38:43:50
  TRACK 09 AUDIO
TITLE "Белым снегом запорошен сад"
PERFORMER "группа Мамочка"
    INDEX 01 41:15:59
  TRACK 10 AUDIO
TITLE "Не судьба..."
PERFORMER "группа Мамочка"
    INDEX 01 44:49:54
   

FLAC:

https://yadi.sk/mail/?hash=rcq+wupm7E0UjBnmDHiz8g2dEzEWyqVzk5IgrEThtCY=

0

2

Что все скачали ...

0


Вы здесь » Tutnet-fufla » Шансон в форм. lossless » (24/96) Гр.Мамочка - 1991