Tutnet-fufla

Объявление

Введите здесь ваше объявление.

Информация о пользователе

Привет, Гость! Войдите или зарегистрируйтесь.


Вы здесь » Tutnet-fufla » Цыганский музыкальный фольклор. » (24|96) Цыгане (катушка)


(24|96) Цыгане (катушка)

Сообщений 1 страница 2 из 2

1

Боря дэвЭс лачО .. Наис

http://i68.fastpic.ru/big/2014/1210/75/041177e8d4bd81cad22433cc539e2775.jpg

(24|96) Цыгане (катушка)
Все благодарности Борису с вт Спасибо .
Интересная запись щелчки иногда прослушиваются 
Трек листа нет .

Скрытый текст:

Для просмотра скрытого текста - войдите или зарегистрируйтесь.


Дмитрий Витальевич давай блесни своими познаниями как
Админ. муз ресурса и я  познакомлю тебя с Красавицей Админом цыганского форума ...
и во втором треке сделай дословный перевод .

Тяните парни достойная запись ....

http://s15.rimg.info/f86727034addfbc3c043f2515f14e1dc.gif

REM GENRE "Shanson"
REM DATE 1989
REM COMMENT "Оцифровка - Борис 63"
TITLE "Магнитоальбом"
PERFORMER "Цыгане"
FILE "Цыгане.flac" WAVE
  TRACK 01 AUDIO
TITLE "Так вперёд за цыганской звездой кочевой..."
PERFORMER "Никита Михалков"
    INDEX 01 00:02:02
  TRACK 02 AUDIO
TITLE "Магнитоальбом"
PERFORMER "Цыгане"
    INDEX 01 02:47:64
  TRACK 03 AUDIO
TITLE "Ой, призадумался"
PERFORMER "Валентина Пономарева"
    INDEX 01 05:52:03
  TRACK 04 AUDIO
TITLE "Магнитоальбом"
PERFORMER "Цыгане"
    INDEX 01 07:52:64
  TRACK 05 AUDIO
TITLE "Магнитоальбом"
PERFORMER "Цыгане"
    INDEX 01 11:08:56
  TRACK 06 AUDIO
TITLE "Магнитоальбом"
PERFORMER "Цыгане"
    INDEX 01 13:09:03
  TRACK 07 AUDIO
TITLE "Магнитоальбом"
PERFORMER "Цыгане"
    INDEX 01 15:30:57
  TRACK 08 AUDIO
TITLE "Магнитоальбом"
PERFORMER "Цыгане"
    INDEX 01 17:53:13
  TRACK 09 AUDIO
TITLE "Магнитоальбом"
PERFORMER "Цыгане"
    INDEX 01 20:45:71
  TRACK 10 AUDIO
TITLE "Магнитоальбом"
PERFORMER "Цыгане"
    INDEX 01 24:23:74
  TRACK 11 AUDIO
TITLE "Магнитоальбом"
PERFORMER "Цыгане"
    INDEX 01 27:18:06
  TRACK 12 AUDIO
TITLE "Магнитоальбом"
PERFORMER "Цыгане"
    INDEX 01 29:46:65
  TRACK 13 AUDIO
TITLE "Магнитоальбом"
PERFORMER "Цыгане"
    INDEX 01 32:01:27
  TRACK 14 AUDIO
TITLE "Магнитоальбом"
PERFORMER "Цыгане"
    INDEX 01 35:17:19
  TRACK 15 AUDIO
TITLE "Магнитоальбом"
PERFORMER "Цыгане"
    INDEX 01 37:57:03
  TRACK 16 AUDIO
TITLE "Магнитоальбом"
PERFORMER "Цыгане"
    INDEX 01 41:51:45
  TRACK 17 AUDIO
TITLE "Магнитоальбом"
PERFORMER "Цыгане"
    INDEX 01 43:39:59

0

2

Качайте парни шикарная музыка.....

0


Вы здесь » Tutnet-fufla » Цыганский музыкальный фольклор. » (24|96) Цыгане (катушка)