Tutnet-fufla

Объявление

Введите здесь ваше объявление.

Информация о пользователе

Привет, Гость! Войдите или зарегистрируйтесь.


Вы здесь » Tutnet-fufla » Оцифровки ВИНИЛА » (24/96) Михаил Круг - Жиган-лимон


(24/96) Михаил Круг - Жиган-лимон

Сообщений 1 страница 6 из 6

1

Пластинка куплена и оц. Борис 63 
Все благодарности ему . Спасибо
.

Оцифровка с пластинки

Треклист:

01 Михаил Круг - Электричка
02 Михаил Круг - Девочка-пай
03 Михаил Круг - Кольщик
04 Михаил Круг - Фраер
05 Михаил Круг - Не спалила, любила
06 Михаил Круг - Осенний дождь
07 Михаил Круг - Кумовая
08 Михаил Круг - Дороги
09 Михаил Круг - Добрая, глупая, давняя
10 Михаил Круг - Жиган-лимон
11 Михаил Круг - А сечку жрите сами
12 Михаил Круг - Светочка
13 Михаил Круг - День как день

CUE:

Код:
REM GENRE "Shanson"
REM DATE 1994 (2014)
REM COMMENT "Оцифровка - Борис 63"
TITLE "Жиган-лимон"
PERFORMER "Михаил Круг"
FILE "1 ст.flac" WAVE
  TRACK 01 AUDIO
TITLE "Электричка"
PERFORMER "Михаил Круг"
    INDEX 01 00:02:23
  TRACK 02 AUDIO
TITLE "Девочка-пай"
PERFORMER "Михаил Круг"
    INDEX 01 03:07:47
  TRACK 03 AUDIO
TITLE "Кольщик"
PERFORMER "Михаил Круг"
    INDEX 01 07:24:38
  TRACK 04 AUDIO
TITLE "Фраер"
PERFORMER "Михаил Круг"
    INDEX 01 12:10:43
  TRACK 05 AUDIO
TITLE "Не спалила, любила"
PERFORMER "Михаил Круг"
    INDEX 01 15:05:52
  TRACK 06 AUDIO
TITLE "Осенний дождь"
PERFORMER "Михаил Круг"
    INDEX 01 19:16:09
FILE "2 ст.flac" WAVE
  TRACK 07 AUDIO
TITLE "Кумовая"
PERFORMER "Михаил Круг"
    INDEX 01 00:00:00
  TRACK 08 AUDIO
TITLE "Дороги"
PERFORMER "Михаил Круг"
    INDEX 01 03:00:17
  TRACK 09 AUDIO
TITLE "Добрая, глупая, давняя"
PERFORMER "Михаил Круг"
    INDEX 01 07:37:64
  TRACK 10 AUDIO
TITLE "Жиган-лимон"
PERFORMER "Михаил Круг"
    INDEX 01 11:00:68
  TRACK 11 AUDIO
TITLE "А сечку жрите сами"
PERFORMER "Михаил Круг"
    INDEX 01 13:54:35
  TRACK 12 AUDIO
TITLE "Светочка"
PERFORMER "Михаил Круг"
    INDEX 01 16:43:18
  TRACK 13 AUDIO
TITLE "День как день"
PERFORMER "Михаил Круг"
    INDEX 01 21:06:67

Скрытый текст:

Для просмотра скрытого текста - войдите или зарегистрируйтесь.

0

2

Все благодарности - Eugen 
Я выставлю и этоту запись Чтоб ты Женя понял бошкой своей
.что спившимуся придурку нужны только говнотёрки .а не споры и обсуждения
и болт он клал на Вас .................
Спасибо за оц.

Михаил КРУГ - ЖИГАН-ЛИМОН (МС)

Михаил Круг - Жиган - Лимон (Аудиокассета) 24/96

Исполнитель: Михаил Круг
Альбом: - Жиган - лимон, 1994
Лейбл: Master Sound
Каталожный номер: MS 018/MC
Оцифровка с кассеты 24/96
(МК, Nakamichi 580M, ESI Juli@, Adobe 4)

Треклист:

01 Михаил Круг - Электричка
02 Михаил Круг - Девочка - пай
03 Михаил Круг - Кольщик
04 Михаил Круг - Дороги
05 Михаил Круг - Фраер
06 Михаил Круг - Добрая, глупая, давняя
07 Михаил Круг - Кумовая
08 Михаил Круг - Свадьба Катерины
09 Михаил Круг - Осенний дождь
10 Михаил Круг - Не спалила, любила
11 Михаил Круг - Жиган - лимон
12 Михаил Круг - А сечку жрите сами
13 Михаил Круг - Светочка
14 Михаил Круг - День как день
15 Михаил Круг - Девочка пай - 2
16 Михаил Круг - Пусти меня ты мама

https://yadi.sk/mail/?hash=z2VWeWgSU/DYP1BqTuC7+epif0EHn1RZc33/vkzK2+w=&uid=252251247

0

3

Здравствуйте парни Чтоб не возникали говнотёрки поясню .
что я не крал нечего .а выставлен этот альбом в этой теме в мп3  по той причине
что какой день не утихают говнотёрки на одном из форумов где спившийся придурок навязывает
всем своё мнение и оскорбляет людей
Все благодарности  aliosha333
Спасибо Извини но удалять тут никто не чего не будет
мне понравилась запись ссылку твою я не брал.


Михаил Круг  Жиган-лимон (1994г)

Исполнитель - Михаил Круг
Альбом:  Жиган-лимон
Год выпуска: - 1994
Жанр:  Шансон
Формат:  мрз
Качество   320 kbps
Количество композиций  12
Размер: 108 МБ Мв

http://i66.fastpic.ru/thumb/2014/1231/ae/826105d821057085b4010bac9e5b11ae.jpeg

01.Электричка
02.Девочка Пай
03.Кольщик
04.Дороги
05.Фраер
06.Добрая, глупая, давняя
07.Кумовая
08.Осенний дождь
09.Не спалила, любила
10.Катя
11.Жиган лимон
12.А сечку жрите

https://yadi.sk/d/Gg1rThCNdj6Lj

http://i64.fastpic.ru/thumb/2014/1231/49/cd8a1d455eb1051c8ec3523dc2176e49.jpeg

0

4

0

5

0

6

Скажите пож. И что те люди которые покупали. цыфровали не достойны прочитать элемент.
слово Спасибо в свой адрес ?????7

0


Вы здесь » Tutnet-fufla » Оцифровки ВИНИЛА » (24/96) Михаил Круг - Жиган-лимон