Tutnet-fufla

Объявление

Введите здесь ваше объявление.

Информация о пользователе

Привет, Гость! Войдите или зарегистрируйтесь.


Вы здесь » Tutnet-fufla » Русская муз. Поп.дэнс.Ретро.фольк. » 24/96] Марина Журавлева - Алые Гвоздики (1990) lossless


24/96] Марина Журавлева - Алые Гвоздики (1990) lossless

Сообщений 1 страница 5 из 5

1

Нет парни я не украл данный ревлиз
а приватизировал у спившигося негодяя с вт который
называет себя Админ. муз. груп. ДМИТРИЙ - СРУЛЬ
он банит и оскорбляет польз. проваципуя на оскорбления и мат.... .
Он никогда не был Админ. ВТ это спившийся самозванец.....
дорвавшийся до власти...
Этого негодяя гонят со всех муз. ресурсов.
Это не оговор - это правда..

24/96] Марина Журавлева - Алые Гвоздики (1990) lossless

Марина Журавлева - Алые Гвоздики (1990)

Жанр: Pop
Год выпуска: 1990
Лейбл: - (возможно СОЮЗ)
Страна-производитель: Россия
Аудио кодек: FLAC
Тип рипа: image+.cue
Формат записи: 24/96
Формат раздачи: 24/96
Продолжительность: 32 минуты 31 секунда

Треклист:

1. Алые Гвоздики
2. Третий Лишний
3. Моя Любовь
4. Малина
5. Снежинка
6. Дождь (Мне теперь все равно)
7. Звездная ночь
8. Может нам любви не надо
9. Вошел ты в жизнь неосторожно (Уйду и ты не остановишь)

Источник оцифровки: alias1093
Устройство воспроизведения: Яуза МП-221С-2
Предварительный усилитель: Монолит Д7
АЦП: VIA VT1818 Azalia HD Audio
Программа-оцифровщик: Sony Sound Forge 7.0
Обработка: устранение потертостей песен на ленте

Скачать:

https://yadi.sk/mail/?hash=GpGl1GAgwEXxNPnef6isRs5coV2Obpf94td/Nu5K1LU=&uid=252251247

0

2

(24/96) Марина Журавлева - Алые гвоздики (1990) Lossless

Марина Журавлева - Алые гвоздики

катушка Ильи (redcaesar)
оцифровка Борис63
Спасибо им

Треклист:

01 Марина Журавлева - Алые гвоздики
02 Марина Журавлева - Третий лишний
03 Марина Журавлева - Моя любовь
04 Марина Журавлева - Малина
05 Марина Журавлева - Снежинка
06 Марина Журавлева - Дождь
07 Марина Журавлева - Звездная ночь
08 Марина Журавлева - Может о любви не надо
09 Марина Журавлева - Уйду, и ты не остановишь
10 Марина Журавлева - Вот и все

Скачать FLAC+CUE (цифровой обработки нет):

https://yadi.sk/mail/?hash=s9QtWnnh1rR637Mi9elDIg7aSlBa3S4fLrdrI0RMjvE=&uid=252251247
__________________

0

3

Катушка из личной коллекции Бориса 63

Записано на 2-е дороги

Провалы присутствуют, запись выставлена для ознакомления.

Треклист:

01 Марина Журавлёва - Алые гвоздики
02 Марина Журавлёва - Третий лишний
03 Марина Журавлёва - Моя любовь
04 Марина Журавлёва - Малина
05 Марина Журавлёва - Снежинка
06 Марина Журавлёва - Дождь
07 Марина Журавлёва - Звездная ночь
08 Марина Журавлёва - Может о любви не надо
09 Марина Журавлёва - Уйду, и ты не остановишь

10 ? - Анна
11 ? - Где-то у самой пропасти...
12 Валерий Чистяков - Я хочу тебя!
13 Валерий Чистяков - О, Мари!

СUE:

Код:
REM GENRE "ПОП"
REM DATE 1990
REM COMMENT "Оцифровка - Борис 63"
TITLE "Алые гвоздики"
PERFORMER "Марина Журавлёва"
FILE "ЖУРАВЛЁВА -Алые гвоздики- 1990.flac" WAVE
  TRACK 01 AUDIO
TITLE "Алые гвоздики"
PERFORMER "Марина Журавлёва"
    INDEX 01 00:00:00
  TRACK 02 AUDIO
TITLE "Третий лишний"
PERFORMER "Марина Журавлёва"
    INDEX 01 04:30:38
  TRACK 03 AUDIO
TITLE "Моя любовь"
PERFORMER "Марина Журавлёва"
    INDEX 01 08:04:64
  TRACK 04 AUDIO
TITLE "Малина"
PERFORMER "Марина Журавлёва"
    INDEX 01 11:31:35
  TRACK 05 AUDIO
TITLE "Снежинка"
PERFORMER "Марина Журавлёва"
    INDEX 01 15:23:12
  TRACK 06 AUDIO
TITLE "Дождь"
PERFORMER "Марина Журавлёва"
    INDEX 01 18:58:59
  TRACK 07 AUDIO
TITLE "Звездная ночь"
PERFORMER "Марина Журавлёва"
    INDEX 01 22:08:54
  TRACK 08 AUDIO
TITLE "Может о любви не надо"
PERFORMER "Марина Журавлёва"
    INDEX 01 25:26:35
  TRACK 09 AUDIO
TITLE "Уйду, и ты не остановишь"
PERFORMER "Марина Журавлёва"
    INDEX 01 29:52:19
  TRACK 10 AUDIO
TITLE "Анна"
PERFORMER "?"
    INDEX 01 33:46:18
  TRACK 11 AUDIO
TITLE "Где-то у самой пропасти..."
PERFORMER "?"
    INDEX 01 37:19:22
  TRACK 12 AUDIO
TITLE "Я хочу тебя!"
PERFORMER "Валерий Чистяков"
    INDEX 01 43:24:53
  TRACK 13 AUDIO
TITLE "О, Мари!"
PERFORMER "Валерий Чистяков"
    INDEX 01 47:20:29
ссылка

https://yadi.sk/mail/?hash=AH24HTEJ/ezq6KcyqokS7JMH2gFrEk3WbgyOb+HtbSE=&uid=193190115

0

4

........................................
............................

0

5

Марина Журавлева (1995) Играй, гитара [1995, Sweden, SZCD0328-95] lossless
можно купить на вт у Сруля Саломоновича ..... со скидкой... Доставка по Москве бесплатно

0


Вы здесь » Tutnet-fufla » Русская муз. Поп.дэнс.Ретро.фольк. » 24/96] Марина Журавлева - Алые Гвоздики (1990) lossless