Tutnet-fufla

Объявление

Введите здесь ваше объявление.

Информация о пользователе

Привет, Гость! Войдите или зарегистрируйтесь.


Вы здесь » Tutnet-fufla » Шансон в форм. lossless » (24/96) Игорь Козлов - Одесские дворики- 1991 год


(24/96) Игорь Козлов - Одесские дворики- 1991 год

Сообщений 1 страница 3 из 3

1

(24/96) Игорь Козлов - Одесские дворики- 1991 год

Оцифровка с катушки
ОЦИФРОВАНО С ДВУХ ДОРОГ!!!

Треклист:

01. Вступление
02. В 7-40
03. Черное море
04. Южные ночи
05. Одесса ночная
06. Чудесная девчонка
07. Измена
08. По Одесским улицам
09. Крещатик
10. Шаланды
11. Как жаль
12. Машка
13. Летит комар-комарище навстречу...
14. На острове зеленом и туманном...

CUE:

Код:
REM GENRE "Shanson"
REM DATE 1991
REM COMMENT "Оцифровка - Борис 63"
TITLE "Одесские дворики"
PERFORMER "Игорь Козлов"
FILE "ИГОРЬ КОЗЛОВ -Одесские дворики-1990.flac" WAVE
  TRACK 01 AUDIO
TITLE "Вступление"
PERFORMER "Игорь Козлов"
    INDEX 01 00:03:04
  TRACK 02 AUDIO
TITLE "В 7-40"
PERFORMER "Игорь Козлов"
    INDEX 01 00:27:19
  TRACK 03 AUDIO
TITLE "Черное море"
PERFORMER "Игорь Козлов"
    INDEX 01 03:43:54
  TRACK 04 AUDIO
TITLE "Южные ночи"
PERFORMER "Игорь Козлов"
    INDEX 01 08:40:44
  TRACK 05 AUDIO
TITLE "Одесса ночная"
PERFORMER "Игорь Козлов"
    INDEX 01 11:45:71
  TRACK 06 AUDIO
TITLE "Чудесная девчонка"
PERFORMER "Игорь Козлов"
    INDEX 01 15:49:02
  TRACK 07 AUDIO
TITLE "Измена"
PERFORMER "Игорь Козлов"
    INDEX 01 18:57:65
  TRACK 08 AUDIO
TITLE "По Одесским улицам"
PERFORMER "Игорь Козлов"
    INDEX 01 22:54:61
  TRACK 09 AUDIO
TITLE "Крещатик"
PERFORMER "Игорь Козлов"
    INDEX 01 25:38:05
  TRACK 10 AUDIO
TITLE "Шаланды"
PERFORMER "Игорь Козлов"
    INDEX 01 30:42:42
  TRACK 11 AUDIO
TITLE "Как жаль"
PERFORMER "Игорь Козлов"
    INDEX 01 34:15:70
  TRACK 12 AUDIO
TITLE "Машка"
PERFORMER "Игорь Козлов"
    INDEX 01 38:16:28
  TRACK 13 AUDIO
TITLE "Летит комар-комарище навстречу..."
PERFORMER "Игорь Козлов"
    INDEX 01 41:20:02
  TRACK 14 AUDIO
TITLE "На острове зеленом и туманном..."
PERFORMER "Игорь Козлов"
    INDEX 01 45:11:19
Скачать FLAC+CUE:

https://yadi.sk/mail/?hash=v8QeQicUfrvhtqiZeI90wRyfIXO877gtyeG672u3g18=

0

2

Данный реал не украден а приватизирован
у спившигося шизофреника с вт дмитрия .
Который наз. себя Админ. муз. группы. Банит
и оскорбляет пользователей чиня беспредел.
Который оскорбляет целые нации людей

0

3

http://sf.uploads.ru/KcG8n.png
http://s8.uploads.ru/T1aE9.png

0


Вы здесь » Tutnet-fufla » Шансон в форм. lossless » (24/96) Игорь Козлов - Одесские дворики- 1991 год