Это интересно Скрыть

Tutnet-fufla

Объявление

Информация о пользователе

Привет, Гость! Войдите или зарегистрируйтесь.


Вы здесь » Tutnet-fufla » Шансон в форм. lossless » [24/96] Михаил Звездинский с ансамблем ФАВОРИТЫ (1980) Lossless


[24/96] Михаил Звездинский с ансамблем ФАВОРИТЫ (1980) Lossless

Сообщений 1 страница 3 из 3

1

Данный реал не украден а приватизирован
у спившигося шизофреника с вт дмитрия .
Который наз. себя Админ. муз. группы. Банит
и оскорбляет пользователей чиня беспредел.
Который оскорбляет целые нации людей

[24/96] Михаил Звездинский с ансамблем ФАВОРИТЫ (1980) Lossless

Оцифровка с катушки Игоря - ник i687
За что ему спасибо

трек лист

01. Вступление
02. Денег дай
03. Мадам, не говорите о любви!
04. Мальчики-налётчики
05. Это очень легко
06. Свечи - осенней ночью за окном
07. Зачем растратчиков везут из Ленинграда?
08. Картина прошлого
09. А на столе бутылка самогонки
10. Сын поварихи и лекальщика
11. Мне хочется надеяться (Перестройка)-Гранд дамы в шаробанах
12. Сердце человеческое хрупко
13. Маруська

2 сторона

01. За кордоном Россия
02. Зачем вам это знать?
03. Темновские куплеты (Опять "Березку" дома ждут)
04. Кыш вы, шкеты, под вагоны! (Черная кошка)
05. Расставаясь, она говорила...
06. Не уходи побудь со мною!
07. Бацилла и Чума
08. Прости за боль
09. Корешок мой Сенечка
10. Живу, как я хочу
11. Я больше Вам не напишу
12. Сенокос

Код:
REM GENRE "Shanson"
REM DATE 1990
REM COMMENT "Оцифровка - Борис 63"
TITLE "С ансамблем Фавориты"
PERFORMER "Михаил Звездинский"
FILE "Михаил Звездинский -ФАВОРИТЫ-(1).flac" WAVE
  TRACK 01 AUDIO
TITLE "Вступление"
PERFORMER "Михаил Звездинский"
    INDEX 01 00:02:25
  TRACK 02 AUDIO
TITLE "Денег дай!"
PERFORMER "Михаил Звездинский"
    INDEX 01 00:41:53
  TRACK 03 AUDIO
TITLE "Мадам, не говорите о любви!"
PERFORMER "Михаил Звездинский"
    INDEX 01 05:16:11
  TRACK 04 AUDIO
TITLE "Мальчики-налётчики"
PERFORMER "Михаил Звездинский"
    INDEX 01 08:21:29
  TRACK 05 AUDIO
TITLE "Это очень легко"
PERFORMER "Михаил Звездинский"
    INDEX 01 13:19:17
  TRACK 06 AUDIO
TITLE "Свечи - осенней ночью за окном"
PERFORMER "Михаил Звездинский"
    INDEX 01 18:06:67
  TRACK 07 AUDIO
TITLE "Зачем растратчиков везут из Ленинграда?"
PERFORMER "Михаил Звездинский"
    INDEX 01 22:16:12
  TRACK 08 AUDIO
TITLE "Картина прошлого"
PERFORMER "Михаил Звездинский"
    INDEX 01 26:13:58
  TRACK 09 AUDIO
TITLE "А на столе бутылка самогонки"
PERFORMER "Михаил Звездинский"
    INDEX 01 31:52:17
  TRACK 10 AUDIO
TITLE "Сын поварихи и лекальщика"
PERFORMER "Михаил Звездинский"
    INDEX 01 34:24:39
  TRACK 11 AUDIO
TITLE "Мне хочется надеяться (Перестройка)-Гранд дамы в шаробанах"
PERFORMER "Михаил Звездинский"
    INDEX 01 37:00:03
  TRACK 12 AUDIO
TITLE "Сердце человеческое хрупко"
PERFORMER "Михаил Звездинский"
    INDEX 01 39:29:68
  TRACK 13 AUDIO
TITLE "Маруська"
PERFORMER "Михаил Звездинский"
    INDEX 01 44:44:65
FILE "Михаил Звездинский -ФАВОРИТЫ-(2).flac" WAVE
  TRACK 14 AUDIO
TITLE "За кордоном Россия"
PERFORMER "Михаил Звездинский"
    INDEX 01 00:03:49
  TRACK 15 AUDIO
TITLE "Зачем вам это знать?"
PERFORMER "Михаил Звездинский"
    INDEX 01 05:09:18
  TRACK 16 AUDIO
TITLE "Темновские куплеты (Опять Березку дома ждут)"
PERFORMER "Михаил Звездинский"
    INDEX 01 11:05:01
  TRACK 17 AUDIO
TITLE "Кыш вы, шкеты, под вагоны! (Черная кошка)"
PERFORMER "Михаил Звездинский"
    INDEX 01 15:58:35
  TRACK 18 AUDIO
TITLE "Расставаясь, она говорила..."
PERFORMER "Михаил Звездинский"
    INDEX 01 18:26:67
  TRACK 19 AUDIO
TITLE "Не уходи побудь со мною!"
PERFORMER "Михаил Звездинский"
    INDEX 01 22:28:08
  TRACK 20 AUDIO
TITLE "Бацилла и Чума"
PERFORMER "Михаил Звездинский"
    INDEX 01 27:10:61
  TRACK 21 AUDIO
TITLE "Прости за боль"
PERFORMER "Михаил Звездинский"
    INDEX 01 29:45:21
  TRACK 22 AUDIO
TITLE "Корешок мой Сенечка"
PERFORMER "Михаил Звездинский"
    INDEX 01 34:06:70
  TRACK 23 AUDIO
TITLE "Живу, как я хочу"
PERFORMER "Михаил Звездинский"
    INDEX 01 36:55:13
  TRACK 24 AUDIO
TITLE "Я больше Вам не напишу"
PERFORMER "Михаил Звездинский"
    INDEX 01 39:23:39
  TRACK 25 AUDIO
TITLE "Сенокос"
PERFORMER "Михаил Звездинский"
    INDEX 01 44:10:24
FLAC (без разметки по трекам):

1 сторона

https://yadi.sk/d/GwXERPArJa4ze

2 сторона

https://yadi.sk/d/a4LxRMtsJa6ZT

FLAC + CUE:

https://yadi.sk/d/rmj7VSJXJbSkP

mp3--320 kbps:

https://yadi.sk/d/VqyUJp8yJdSG7

0

2

Ну Спасибо никто писать не хочет . Тогда можете приобрести вот этот ап. Он в продаже щас .
(за рекламму прошу мой % перечислит на глав.поч. )

http://i69.fastpic.ru/big/2015/1013/2d/80afb98cb1d26a8e47bbb35ae880202d.jpg

0

3

Ну и очередной шедевр ... Качайте а то митя ссылки удалит ..

http://savepic.ru/13194293.png

(24/96) Михаил Звездинский с анс. Фавориты - 1980 год с Technics 1506) (lossless)

REM GENRE "Шансон"
REM DATE 1980
REM COMMENT "Оцифровка - Борис 63"
TITLE "Магнитоальбом"
PERFORMER "Михаил Звездинский с ансамблем Фавориты"
FILE "1.flac" WAVE
  TRACK 01 AUDIO
TITLE "Вступление"
PERFORMER "Михаил Звездинский с ансамблем Фавориты"
    INDEX 01 00:01:54
  TRACK 02 AUDIO
TITLE "Денег дай!"
PERFORMER "Михаил Звездинский с ансамблем Фавориты"
    INDEX 01 00:38:52
  TRACK 03 AUDIO
TITLE "Мадам не говорите о любви!"
PERFORMER "Михаил Звездинский с ансамблем Фавориты"
    INDEX 01 05:01:26
  TRACK 04 AUDIO
TITLE "Мальчики - налётчики"
PERFORMER "Михаил Звездинский с ансамблем Фавориты"
    INDEX 01 07:58:60
  TRACK 05 AUDIO
TITLE "Много лет, мы с тобой не видались"
PERFORMER "Михаил Звездинский с ансамблем Фавориты"
    INDEX 01 12:43:61
  TRACK 06 AUDIO
TITLE "Свечи"
PERFORMER "Михаил Звездинский с ансамблем Фавориты"
    INDEX 01 17:21:24
  TRACK 07 AUDIO
TITLE "Зачем растратчиков везут из Ленинграда"
PERFORMER "Михаил Звездинский с ансамблем Фавориты"
    INDEX 01 21:21:52
  TRACK 08 AUDIO
TITLE "Ночь тишина слегка туманит свет, любимая прости меня бродягу!"
PERFORMER "Михаил Звездинский с ансамблем Фавориты"
    INDEX 01 25:09:71
  TRACK 09 AUDIO
TITLE "А на столе бутылка самогонки"
PERFORMER "Михаил Звездинский с ансамблем Фавориты"
    INDEX 01 30:36:49
  TRACK 10 AUDIO
TITLE "Сын поварихи и лекальщика"
PERFORMER "Михаил Звездинский с ансамблем Фавориты"
    INDEX 01 33:01:46
  TRACK 11 AUDIO
TITLE "Гранд дамы в шарабанах"
PERFORMER "Михаил Звездинский с ансамблем Фавориты"
    INDEX 01 35:30:69
  TRACK 12 AUDIO
TITLE "Сердце человеческое хрупко"
PERFORMER "Михаил Звездинский с ансамблем Фавориты"
    INDEX 01 37:54:63
  TRACK 13 AUDIO
TITLE "Жил я летом раз в колхозе (обрыв)"
PERFORMER "Михаил Звездинский с ансамблем Фавориты"
    INDEX 01 42:58:19

1 сторона

https://yadi.sk/mail/?hash=3JXgShC4vo9kZZmGX3mOdi+i500GzVcu3hAgwKyISCU=&uid=423865181

2 сторона

https://yadi.sk/mail/?hash=3xMzjMlSMdyTJIjOf1SsqOTOfmgFZAPLXzscPJRUxiM=&uid=423865181

0


Вы здесь » Tutnet-fufla » Шансон в форм. lossless » [24/96] Михаил Звездинский с ансамблем ФАВОРИТЫ (1980) Lossless