Это интересно Скрыть

Tutnet-fufla

Объявление

Информация о пользователе

Привет, Гость! Войдите или зарегистрируйтесь.


Вы здесь » Tutnet-fufla » Исполнители эмиграции биографии .альбомы » Петр Лещенко - Chants Tziganes De Russie


Петр Лещенко - Chants Tziganes De Russie

Сообщений 1 страница 2 из 2

1

Петр Лещенко - Chants Tziganes De Russie

Жанр: vocal; retro
Носитель: LP
Год выпуска: 19?
Лейбл: Columbia FS 1055
Страна-производитель: France
Аудио кодек: FLAC
Тип рипа: image+.cue
Формат записи: 16/44100
Формат раздачи: 16/44100
Продолжительность: 30:29
Треклист:
01. Станочек (stanotschek)
02. Черные глаза (les yeux noirs)
03. Бессарабянка (bessarabianka)
04. Буран (bourann)
05. Что мне горе (pourquoi etre triste)
06. Жизнь цыганская (la vie tzigane)
07. Рюмка водки (un verre de vodka)
08. Льется песня (un chant s'eleve)
09. Чубчик (tchoubtchik)
10. Прощай мой табор (adieu o mon Tabor!)

Спасибо georgy50 за оцифровку

https://yadi.sk/d/wTFRYBGMeM24C
..............................................

Нет парни я не украл данный ревлиз
а приватизировал у спившигося негодяя с вт который
называет себя Админ. муз. груп. ДМИТРИЙ - СРУЛЬ
он банит и оскорбляет польз. проваципуя на оскорбления и мат.... .
Он никогда не был Админ. ВТ это спившийся самозванец.....
дорвавшийся до власти...
Этого негодяя гонят со всех муз. ресурсов.
Это не оговор - это правда..

Оцифровка с катушки ИЛЬИ!
(Рыло своё всунул сруль для раскачивания говнотёрок)

Треклист:

01 Петр Лещенко - Станочек
02 Петр Лещенко - Ах, эти чёрные глаза!
03 Петр Лещенко - Бессарабия
04 Петр Лещенко - Буран будет...
05 Петр Лещенко - Что мне горе?
06 Петр Лещенко - Степи молдаванские
07 Петр Лещенко - Рюмка водки
08 Петр Лещенко - И льётся песня
09 Петр Лещенко - Прощай мой табор
10 Петр Лещенко - Чубчик
11 Петр Лещенко - Синяя рапсодия

REM GENRE "Folk"
REM COMMENT "Оцифровка - Борис 63"
TITLE "Chants Tziganes De Russie"
PERFORMER "Петр Лещенко"
FILE "Петр Лещенко.flac" WAVE
  TRACK 01 AUDIO
TITLE "Станочек"
PERFORMER "Петр Лещенко"
    INDEX 01 00:00:00
  TRACK 02 AUDIO
TITLE "Ах, эти чёрные глаза!"
PERFORMER "Петр Лещенко"
    INDEX 01 03:15:70
  TRACK 03 AUDIO
TITLE "Бессарабия"
PERFORMER "Петр Лещенко"
    INDEX 01 06:23:21
  TRACK 04 AUDIO
TITLE "Буран будет..."
PERFORMER "Петр Лещенко"
    INDEX 01 09:01:68
  TRACK 05 AUDIO
TITLE "Что мне горе?"
PERFORMER "Петр Лещенко"
    INDEX 01 11:53:40
  TRACK 06 AUDIO
TITLE "Степи молдаванские"
PERFORMER "Петр Лещенко"
    INDEX 01 14:55:60
  TRACK 07 AUDIO
TITLE "Рюмка водки"
PERFORMER "Петр Лещенко"
    INDEX 01 18:07:40
  TRACK 08 AUDIO
TITLE "И льётся песня"
PERFORMER "Петр Лещенко"
    INDEX 01 21:01:02
  TRACK 09 AUDIO
TITLE "Прощай мой табор"
PERFORMER "Петр Лещенко"
    INDEX 01 24:18:46
  TRACK 10 AUDIO
TITLE "Чубчик"
PERFORMER "Петр Лещенко"
    INDEX 01 27:25:03
  TRACK 11 AUDIO
TITLE "Синяя рапсодия"
PERFORMER "Петр Лещенко"
    INDEX 01 30:17:35

https://yadi.sk/mail/?hash=exLO94Hreb6YePIlj+YBKCri7kRi2LAC0yZq1oG4xto=&uid=193190115

http://i64.fastpic.ru/big/2015/0130/d0/1df22fc1950bfc6dee7c2b952082d7d0.png

Сруль Саломонович не ссы качай Это подарок тебе мудаку
спившимуся

http://rghost.ru/7fwQXFWFj

0

2

0


Вы здесь » Tutnet-fufla » Исполнители эмиграции биографии .альбомы » Петр Лещенко - Chants Tziganes De Russie