Tutnet-fufla

Объявление

Введите здесь ваше объявление.

Информация о пользователе

Привет, Гость! Войдите или зарегистрируйтесь.


Вы здесь » Tutnet-fufla » Шансон в форм. lossless » [24/96] Роман Булгачев и группа ФЛОРА И САУНА (1990) Lossless


[24/96] Роман Булгачев и группа ФЛОРА И САУНА (1990) Lossless

Сообщений 1 страница 2 из 2

1

Нет парни я не украл данный ревлиз
а приватизировал у спившигося негодяя с вт который
называет себя Админ. муз. груп. ДМИТРИЙ - СРУЛЬ
он банит и оскорбляет польз. проваципуя на оскорбления и мат.... .
Он никогда не был Админ. ВТ это спившийся самозванец.....
дорвавшийся до власти...
Этого негодяя гонят со всех муз. ресурсов.
Это не оговор - это правда..

[24/96] Роман Булгачев и группа ФЛОРА И САУНА (1990) Lossless

Оцифровка с катушки из личной коллекции

Код:
REM GENRE Chanson
REM DATE 1990
REM COMMENT Оцифровка Борис 63
PERFORMER "Роман Булгачев и гр. Флора и Сауна"
TITLE "Магнитоальбом"
FILE "Роман Булгачев гр.ФЛОРА И САУНА - 1990 год.flac" WAVE
  TRACK 01 AUDIO
TITLE "Дождь идёт в Одессе"
    INDEX 01 00:00:46
  TRACK 02 AUDIO
TITLE "Без водки, что за аппетит?"
    INDEX 01 03:46:33
  TRACK 03 AUDIO
TITLE "Летающая тарелка"
    INDEX 01 06:08:49
  TRACK 04 AUDIO
TITLE "Извозчик"
    INDEX 01 08:55:54
  TRACK 05 AUDIO
TITLE "Фрайер"
    INDEX 01 10:51:60
  TRACK 06 AUDIO
TITLE "В Одессе"
    INDEX 01 14:19:47
  TRACK 07 AUDIO
TITLE "Мне любопытно"
    INDEX 01 18:04:61
  TRACK 08 AUDIO
TITLE "У мента Аркадия"
    INDEX 01 20:41:58
  TRACK 09 AUDIO
TITLE "Журавли"
    INDEX 01 24:15:41
  TRACK 10 AUDIO
TITLE "Судьи в СССР"
    INDEX 01 28:42:06
  TRACK 11 AUDIO
TITLE "Не любится при свете"
    INDEX 01 31:12:63
  TRACK 12 AUDIO
TITLE "Любви все возрасты покорны"
    INDEX 01 33:59:32
  TRACK 13 AUDIO
TITLE "Вы не были в Одессе?"
    INDEX 01 37:34:06
  TRACK 14 AUDIO
TITLE "Алевтина Николаевна"
    INDEX 01 40:22:22
  TRACK 15 AUDIO
TITLE "Люда Королёва"
PERFORMER "Виктор Лебедев"
    INDEX 01 44:08:26

ссылка -

Скрытый текст:

Для просмотра скрытого текста - войдите или зарегистрируйтесь.

0

2

Что Спасибо чел. трудно написать ????? Кл. сломалась у всех ????

0


Вы здесь » Tutnet-fufla » Шансон в форм. lossless » [24/96] Роман Булгачев и группа ФЛОРА И САУНА (1990) Lossless