Все благодарности - Борис 63 с вт Он наверно один верит в порядочность спившигося негодяя димуле
Это его право ... Боря Спасибо за запись и желание под. с людьми ...

(24/96) Аркадий Северный - Рассказы о московском дне + Люблю я 40 градусов.

Аркадий Северный - Рассказы о московском дне + Люблю я 40 градусов + избанное из Северного + пародии читает Леонид Филатов

Оцифровка с кассеты
Очифровано с аппарата - на фото работающий.

Люблю я 40 градусов

Треклист:

01. Люблю я сорок градусов, но только не мороз…
02. Скоро срок окончится, а уезжать, увы не хочется…
03. Нет причин для тоски на свете, что ни баба – то помело…
04. Вы хочете песен – их есть у меня…
05. Черные стрелки обходят циферблат…
06. Отец мой – он, а мать моя – Надежда…
07. В Николаевском на бане…
08. Зачем на свете люди…
09. Ай-яй-яй! Да я несчастная девчоночка…
10. А стало быть, скатилася слеза…
11. Четвертый год пока, тюрьма твой дом ЗэКа…
12. Являйтесь, ребята, с повинной
13. Вы скажете: Бывают в жизни шутки…
14. Мне этот суд не забыть никогда…
15. Не считайте за подлость…

CUE:

Код:
REM GENRE "Shanson"
REM DATE 1975
REM COMMENT "Оцифровка - Борис 63"
TITLE "Люблю я 40 градусов"
PERFORMER "Аркадий Северный"
FILE "Люблю я 40 градусов.flac" WAVE
  TRACK 01 AUDIO
TITLE "Люблю я сорок градусов, но только не мороз…"
PERFORMER "Аркадий Северный"
    INDEX 01 00:00:00
  TRACK 02 AUDIO
TITLE "Скоро срок окончится, а уезжать, увы не хочется…"
PERFORMER "Аркадий Северный"
    INDEX 01 02:30:52
  TRACK 03 AUDIO
TITLE "Нет причин для тоски на свете, что ни баба – то помело…"
PERFORMER "Аркадий Северный"
    INDEX 01 05:14:36
  TRACK 04 AUDIO
TITLE "Вы хочете песен – их есть у меня…"
PERFORMER "Аркадий Северный"
    INDEX 01 10:03:56
  TRACK 05 AUDIO
TITLE "Черные стрелки обходят циферблат…"
PERFORMER "Аркадий Северный"
    INDEX 01 13:16:74
  TRACK 06 AUDIO
TITLE "Отец мой – он, а мать моя – Надежда…"
PERFORMER "Аркадий Северный"
    INDEX 01 15:02:64
  TRACK 07 AUDIO
TITLE "В Николаевском на бане…"
PERFORMER "Аркадий Северный"
    INDEX 01 20:04:67
  TRACK 08 AUDIO
TITLE "Зачем на свете люди…"
PERFORMER "Аркадий Северный"
    INDEX 01 23:54:30
  TRACK 09 AUDIO
TITLE "Ай-яй-яй! Да я несчастная девчоночка…"
PERFORMER "Аркадий Северный"
    INDEX 01 27:08:53
  TRACK 10 AUDIO
TITLE "А стало быть, скатилася слеза…"
PERFORMER "Аркадий Северный"
    INDEX 01 30:30:08
  TRACK 11 AUDIO
TITLE "Четвертый год пока, тюрьма твой дом ЗэКа…"
PERFORMER "Аркадий Северный"
    INDEX 01 36:20:21
  TRACK 12 AUDIO
TITLE "Являйтесь, ребята, с повинной"
PERFORMER "Аркадий Северный"
    INDEX 01 40:35:18
  TRACK 13 AUDIO
TITLE "Вы скажете: Бывают в жизни шутки…"
PERFORMER "Аркадий Северный"
    INDEX 01 44:52:41
  TRACK 14 AUDIO
TITLE "Мне этот суд не забыть никогда…"
PERFORMER "Аркадий Северный"
    INDEX 01 50:10:50
  TRACK 15 AUDIO
TITLE "Не считайте за подлость…"
PERFORMER "Аркадий Северный"
    INDEX 01 57:23:17

Скачать "Люблю я 40 градусов" FLAC+CUE:

https://yadi.sk/mail/?hash=w+BFWwaDS9Li+4iyCNEOOn9R67B7NJDRUhoOOde/i/I=

================================================== ===========

Полная запись кассеты, состоящая из нескольких концертов FLAC (без CUE разметки):

1 сторона

Скрытый текст:

Для просмотра скрытого текста - войдите или зарегистрируйтесь.

2 сторона

Скрытый текст:

Для просмотра скрытого текста - войдите или зарегистрируйтесь.