Это интересно Скрыть

Tutnet-fufla

Объявление

Информация о пользователе

Привет, Гость! Войдите или зарегистрируйтесь.


Вы здесь » Tutnet-fufla » Аркадий Северный Записи и концерты » Аркадий Северный. 4-й концерт с Черноморской Чайкой.


Аркадий Северный. 4-й концерт с Черноморской Чайкой.

Сообщений 1 страница 4 из 4

1

Нет у меня в лучшем качестве . Тяните парни и слушайте накатив и помянув А.Д
Все благодарности - AYShal
Спасибо Андрей..

Аркадий Северный. 4-й концерт с Черноморской Чайкой.
Год : 1977
Аудио кодек: FLAC
Тип рипа: image+.cue
Битрейт аудио: lossless
Трэклист:

Сторона A:

01. В нашем доме, в нашем доме тётя Шура...
02. Здравствуй, чужая милая...
03. Серебрится луной голубая река...
04. На свете жил монах однажды...
05. На знакомой скамье не встречаю я больше рассвета...
06. В каждом сердце есть стремленье к жизни...
07. За окном кудрявая белая акация...
08. На улице дождик, слякоть бульварная...
09. В саду на ветви пел тихонько скворушка...
10. Вешние воды бегут с гор ручьями...
11. Четвёртые сутки пылают станицы...

Сторона B:

12. Я хожу, один гуляю...
13. На лекцию ты пришла...
14. Мне хочется друга...
15. По пыльной дороге, под солнцем палящим...
16. Месяц мордой полощется в луже...
17. Как рассаду сажать, так и вянет она...
18. Девушка в платье из ситца...
19. Напиши мне письмо, дорогая...
20. Полюбил я Настю...
21. Я живу в заброшенной квартире...
22. Все в городе любили Сережку Иванова...
23. На железный засов ворота закрыты... (обрыв)

Про качество: провальчики есть, но запись весьма...!
Доп. информация:
Оцифровка
Собственная бобина
Магнитофон - Олимп 004
Звуковая плата - SoundMAX ADI AD1988A
Цифровал с помощью программы CoolEditPro 1.2
Формат записи и раздачи 16 bit / 44 kHz
Ремастеринг полностью отсутствует, паузы оригинальные.
Файл .CUE написал вручную

Весь альбом скачать https://yadi.sk/d/21eyt_30fp9Rx

Вот с этой песни начинайте слушать ... Но стакан с водкой налитой пусть стоит на столе .

https://yadi.sk/d/Hk1CsZGrfp8nE

0

2

За выкладку, за труд - спасибо.
А качество записи или её оцифровки -.....ниже всякого плинтуса. Видать на плёнке такая лажа была записана.
Александр, умоляю вас - только не надо за то про то что выложить лудьше этого.
У всех есть лучьше, без вопросов.

0

3

рука отвалилась
Гость
Я не у кого ничего кроме песни не прошу. Не прошу и тут выставлять.  я знаю как достаются записи в хорошем качестве поверьте . И мне не нужна халява я устал читать упрёки умников ....
У меня нет в луч. кач. я это написал. ну где то так если коротко...

0

4

Перед тем как скачивать такой объём Слушаем вот этот трек

https://yadi.sk/d/hq33ytKwmpuWc

Аркадий Северный - Четвертый концерт с Черноморской Чайкой - "Тетя Шура" (1977)

http://savepic.ru/8296573.jpg

Оц - Борис 63

01 Аркадий Северный - Тётя Шура
02 Аркадий Северный - Письмо к любимой
03 Аркадий Северный - Серебрится луной голубая река
04 Аркадий Северный - На свете жил монах
05 Аркадий Северный - У знакомой скамьи
06 Аркадий Северный - Измученный скрипач
07 Аркадий Северный - Мать сыночка ждет
08 Аркадий Северный - Девчонка печальная
09 Аркадий Северный - Скворушка
10 Аркадий Северный - Вешние воды
11 Аркадий Северный - Поручик Голицын
12 Аркадий Северный - Колокольчики полевые
13 Аркадий Северный - Всё косы твои, всё бантики
14 Аркадий Северный - Мне хочется друга
15 Аркадий Северный - По пыльной дороге парнишка шагал
16 Аркадий Северный - Я ни кому здесь не нужен
17 Аркадий Северный - Как рассаду сажать
18 Аркадий Северный - Девушка в платье из ситца
19 Аркадий Северный - Напиши письмо, дорогая
20 Аркадий Северный - Полюбил я Настю
21 Аркадий Северный - У меня есть тоже патефончик
22 Аркадий Северный - Прошу прощенья за резкое движенье
23 Аркадий Северный - На железный засов ворота заперты

Скачать WAVE+CUE:

Часть1
Размер: 1,41 ГБ

https://yadi.sk/mail/?hash=NOISGiHQ6L8HXj0icwzdzEgh/kaP+097TEQDMNHiRBc=&uid=193190115

Часть 2
Размер: 1,43 ГБ

https://yadi.sk/mail/?hash=406LNpgvflKppgGreF93c6JbUryYH01vHonKktzuesw=&uid=193190115

https://yadi.sk/d/7zs6xxbFmpb6c

Код:
REM GENRE "Блат"
REM DATE 1977
REM COMMENT "Оцифровка - Борис 63"
TITLE "Тётя Шура-4-ый с Ч.Ч."
PERFORMER "Аркадий Северный"
FILE "1.wav" WAVE
  TRACK 01 AUDIO
TITLE "Тётя Шура"
PERFORMER "Аркадий Северный"
    INDEX 01 00:02:60
  TRACK 02 AUDIO
TITLE "Письмо к любимой"
PERFORMER "Аркадий Северный"
    INDEX 01 02:51:29
  TRACK 03 AUDIO
TITLE "Серебрится луной голубая река"
PERFORMER "Аркадий Северный"
    INDEX 01 06:00:64
  TRACK 04 AUDIO
TITLE "На свете жил монах"
PERFORMER "Аркадий Северный"
    INDEX 01 08:26:36
  TRACK 05 AUDIO
TITLE "У знакомой скамьи"
PERFORMER "Аркадий Северный"
    INDEX 01 10:34:23
  TRACK 06 AUDIO
TITLE "Измученный скрипач"
PERFORMER "Аркадий Северный"
    INDEX 01 15:29:48
  TRACK 07 AUDIO
TITLE "Мать сыночка ждет"
PERFORMER "Аркадий Северный"
    INDEX 01 18:42:09
  TRACK 08 AUDIO
TITLE "Девчонка печальная"
PERFORMER "Аркадий Северный"
    INDEX 01 22:50:41
  TRACK 09 AUDIO
TITLE "Скворушка"
PERFORMER "Аркадий Северный"
    INDEX 01 29:33:45
  TRACK 10 AUDIO
TITLE "Вешние воды"
PERFORMER "Аркадий Северный"
    INDEX 01 34:01:55
  TRACK 11 AUDIO
TITLE "Поручик Голицын"
PERFORMER "Аркадий Северный"
    INDEX 01 39:09:73
FILE "2.wav" WAVE
  TRACK 12 AUDIO
TITLE "Колокольчики полевые"
PERFORMER "Аркадий Северный"
    INDEX 01 00:10:26
  TRACK 13 AUDIO
TITLE "Всё косы твои, всё бантики"
PERFORMER "Аркадий Северный"
    INDEX 01 02:42:26
  TRACK 14 AUDIO
TITLE "Мне хочется друга"
PERFORMER "Аркадий Северный"
    INDEX 01 06:26:66
  TRACK 15 AUDIO
TITLE "По пыльной дороге парнишка шагал"
PERFORMER "Аркадий Северный"
    INDEX 01 11:34:35
  TRACK 16 AUDIO
TITLE "Я ни кому здесь не нужен"
PERFORMER "Аркадий Северный"
    INDEX 01 17:23:11
  TRACK 17 AUDIO
TITLE "Как рассаду сажать"
PERFORMER "Аркадий Северный"
    INDEX 01 20:42:60
  TRACK 18 AUDIO
TITLE "Девушка в платье из ситца"
PERFORMER "Аркадий Северный"
    INDEX 01 24:06:38
  TRACK 19 AUDIO
TITLE "Напиши письмо, дорогая"
PERFORMER "Аркадий Северный"
    INDEX 01 25:58:34
  TRACK 20 AUDIO
TITLE "Полюбил я Настю"
PERFORMER "Аркадий Северный"
    INDEX 01 29:36:08
  TRACK 21 AUDIO
TITLE "У меня есть тоже патефончик"
PERFORMER "Аркадий Северный"
    INDEX 01 32:38:00
  TRACK 22 AUDIO
TITLE "Прошу прощенья за резкое движенье"
PERFORMER "Аркадий Северный"
    INDEX 01 35:54:14
  TRACK 23 AUDIO
TITLE "На железный засов ворота заперты"
PERFORMER "Аркадий Северный"
    INDEX 01 38:21:05

Всем кто любит смотреть на эти спектры Вот сруль саломонович прислал
Но скажу вам так рыло своё он точно всунул в чужую оц.

=Spoiler написал(а):

http://savepic.ru/8305788.jpg
http://savepic.ru/8303740.jpg
http://savepic.ru/8293500.jpg
http://savepic.ru/8296572.jpg

Слушая эту песню сруль салдомонович наверно колбасу жрал и чавкал ушлёпок спившийся



Вот это мп3

Аркадий Северный - 1977 4-й концерт с анс. "Черноморская чайка" - "Тетя Шура"

Альбом:4-ый концерт с анс. Черноморская чайка
Формат:МР3
Качество:320
Размер:224

01. Вступление
02. Тётя Шура
03. Здравствуй, чужая, милая
04. Серебрится луной голубая река
05. На свете жил монах однажды…
06. На знакомой скамье
07. В каждом сердце есть стремленье к жизни…
08. За окном кудрявая белая акация
09. На улице дождик, слякоть бульварная
10. В саду на ветви пел тихонько скворушка…
11. Вешние воды бегут с гор ручьями…
12. Четвертые сутки пылают станицы…
13. Колокольчики полевые
14. Всё косы твои, всё бантики
15. Мне хочется друга...
16. По пыльной дороге...
17. Месяц мордой полощется в луже...
18. Как рассаду сажать, так и вянет она
19. Девушка в платье из ситца
20. Напиши мне письмо, дорогая
21. Полюбил я Настю
22. Я живу в заброшенной квартире…
23. Все в городе любили Серёжку Иванова...
24. На железный засов ворота закрыты...
25. Инструментал (Заключение концерта)

https://yadi.sk/d/bYzRYRKAmpvZg

0


Вы здесь » Tutnet-fufla » Аркадий Северный Записи и концерты » Аркадий Северный. 4-й концерт с Черноморской Чайкой.