Это интересно Скрыть

Tutnet-fufla

Объявление

Информация о пользователе

Привет, Гость! Войдите или зарегистрируйтесь.


Вы здесь » Tutnet-fufla » Русская муз. Поп.дэнс.Ретро.фольк. » [24/96] Марк Бернес с кассеты - Просто хорошие песни! [Lossless]


[24/96] Марк Бернес с кассеты - Просто хорошие песни! [Lossless]

Сообщений 1 страница 2 из 2

1

http://i57.fastpic.ru/big/2015/0422/57/2ceb1ba1543f850f6158f854fb25d957.png


данный ревлиз
приватизировал у спившигося негодяя с вт который
называет себя Админ. муз. груп. ДМИТРИЙ - СРУЛЬ
он банит и оскорбляет польз. проваципуя на оскорбления и мат.... .
Он никогда не был Админ. ВТ это спившийся самозванец.....
дорвавшийся до власти...
Этого негодяя гонят со всех муз. ресурсов.
Это не оговор - это правда..

[24/96] Марк Бернес с кассеты - Просто хорошие песни! [Lossless]

http://sg.uploads.ru/t/PtQDo.png


Оцифровка с кассеты из личной коллекции
Борис 63 Спасибо Боря .. Извини не хотел так поступать

кассета - KONICA XR-1 90
На что и с чего записано мне не ведомо!

Размер: 1,59 ГБ

Код:
REM GENRE "Ретро"
REM COMMENT "Оцифровка - Борис 63"
TITLE "Магнитоальбом"
PERFORMER "Марк Бернес"
FILE "Бернес 1.flac" WAVE
  TRACK 01 AUDIO
TITLE "Песня посящается моя"
PERFORMER "Марк Бернес"
    INDEX 01 00:00:00
  TRACK 02 AUDIO
TITLE "Я улыбаюсь тебе"
PERFORMER "Марк Бернес"
    INDEX 01 02:50:73
  TRACK 03 AUDIO
TITLE "Три года ты мне снилась"
PERFORMER "Марк Бернес"
    INDEX 01 06:04:40
  TRACK 04 AUDIO
TITLE "Песня Рощина"
PERFORMER "Марк Бернес"
    INDEX 01 09:16:67
  TRACK 05 AUDIO
TITLE "Тёмная ночь"
PERFORMER "Марк Бернес"
    INDEX 01 11:58:08
  TRACK 06 AUDIO
TITLE "Любимый город"
PERFORMER "Марк Бернес"
    INDEX 01 15:26:47
  TRACK 07 AUDIO
TITLE "Песня фронтового шофёра"
PERFORMER "Марк Бернес"
    INDEX 01 18:00:05
  TRACK 08 AUDIO
TITLE "Враги сожгли родную хату"
PERFORMER "Марк Бернес"
    INDEX 01 20:04:41
  TRACK 09 AUDIO
TITLE "Перекрёсток"
PERFORMER "Марк Бернес"
    INDEX 01 23:18:09
  TRACK 10 AUDIO
TITLE "Москвичи"
PERFORMER "Марк Бернес"
    INDEX 01 25:44:12
  TRACK 11 AUDIO
TITLE "С чего начинается Родина"
PERFORMER "Марк Бернес"
    INDEX 01 28:10:22
  TRACK 12 AUDIO
TITLE "Журавли"
PERFORMER "Марк Бернес"
    INDEX 01 30:45:54
  TRACK 13 AUDIO
TITLE "Настоящие мужчины"
PERFORMER "Марк Бернес"
    INDEX 01 35:05:41
  TRACK 14 AUDIO
TITLE "Шаланды полные кефали"
PERFORMER "Марк Бернес"
    INDEX 01 37:49:29
  TRACK 15 AUDIO
TITLE "Тучи над городом встали"
PERFORMER "Марк Бернес"
    INDEX 01 40:59:15
  TRACK 16 AUDIO
TITLE "Вечерняя песня"
PERFORMER "Марк Бернес"
    INDEX 01 43:04:65
FILE "Бернес 2.flac" WAVE
  TRACK 17 AUDIO
TITLE "Песня о кино"
PERFORMER "Марк Бернес"
    INDEX 01 00:00:00
  TRACK 18 AUDIO
TITLE "Когда поёт далекий Друг"
PERFORMER "Марк Бернес"
    INDEX 01 03:16:04
  TRACK 19 AUDIO
TITLE "Я спешу"
PERFORMER "Марк Бернес"
    INDEX 01 06:50:46
  TRACK 20 AUDIO
TITLE "А самолёты сами не летают"
PERFORMER "Марк Бернес"
    INDEX 01 10:07:22
  TRACK 21 AUDIO
TITLE "Я работаю волшебником"
PERFORMER "Марк Бернес"
    INDEX 01 12:55:63
  TRACK 22 AUDIO
TITLE "Всё ещё впереди"
PERFORMER "Марк Бернес"
    INDEX 01 16:13:13
  TRACK 23 AUDIO
TITLE "Здравствуйте, дети!"
PERFORMER "Марк Бернес"
    INDEX 01 19:36:70
  TRACK 24 AUDIO
TITLE "Я люблю тебя жизнь"
PERFORMER "Марк Бернес"
    INDEX 01 24:29:21
   

1 сторона

Скрытый текст:

Для просмотра скрытого текста - войдите или зарегистрируйтесь.

2 сторона

Скрытый текст:

Для просмотра скрытого текста - войдите или зарегистрируйтесь.


===============================

FLAC+ *.cue:
https://yadi.sk/d/9K4RDlQVEUCud

0

2

Здравствуйте ребята . Вот мне инт. Неужели у всех клав. сломалась... Я никогда не писал чтоб мне спасибо написали т.к понимаю смысл этого слова . А этот человек неужели не достоин прочитать слова благодарности в свой адрес Ведь он для Вас сидел и цыфровал . Да Вы что парни ....

0


Вы здесь » Tutnet-fufla » Русская муз. Поп.дэнс.Ретро.фольк. » [24/96] Марк Бернес с кассеты - Просто хорошие песни! [Lossless]