Tutnet-fufla

Объявление

Введите здесь ваше объявление.

Информация о пользователе

Привет, Гость! Войдите или зарегистрируйтесь.


Вы здесь » Tutnet-fufla » Шансон в форм. lossless » (24/96) Иван Кучин - запретная зона- 1997 год (lossless)


(24/96) Иван Кучин - запретная зона- 1997 год (lossless)

Сообщений 1 страница 4 из 4

1

(24/96) Иван Кучин - запретная зона- 1997 год (lossless)

http://i57.fastpic.ru/big/2015/0423/66/07c4a0dd32afc8adb47f68adb27e0366.jpg

Треклист:

01 Иван Кучин - Вор и судья
02 Иван Кучин - Заряженный наган
03 Иван Кучин - Сентиментальный детектив (часть 2)
04 Иван Кучин - Хозяин
05 Иван Кучин - Рыжая
06 Иван Кучин - Натаха
07 Иван Кучин - Свидание
08 Иван Кучин - А на бокале муха
09 Иван Кучин - Нищенка
10 Иван Кучин - Запретная зона
11 Иван Кучин - Корешок
12 Иван Кучин - Судьба-злодейка
13 Иван Кучин - Сыночек
14 Иван Кучин - Сон

CUE:

Код:
REM GENRE "Shanson"
REM DATE 1997
REM COMMENT "Оцифровка - Борис 63"
TITLE "Запретная зона"
PERFORMER "Иван Кучин"
FILE "1 сторона.flac" WAVE
  TRACK 01 AUDIO
TITLE "Вор и судья"
PERFORMER "Иван Кучин"
    INDEX 01 00:00:00
  TRACK 02 AUDIO
TITLE "Заряженный наган"
PERFORMER "Иван Кучин"
    INDEX 01 03:25:50
  TRACK 03 AUDIO
TITLE "Сентиментальный детектив (часть 2)"
PERFORMER "Иван Кучин"
    INDEX 01 06:30:32
  TRACK 04 AUDIO
TITLE "Хозяин"
PERFORMER "Иван Кучин"
    INDEX 01 10:01:21
  TRACK 05 AUDIO
TITLE "Рыжая"
PERFORMER "Иван Кучин"
    INDEX 01 13:19:67
  TRACK 06 AUDIO
TITLE "Натаха"
PERFORMER "Иван Кучин"
    INDEX 01 16:22:33
  TRACK 07 AUDIO
TITLE "Свидание"
PERFORMER "Иван Кучин"
    INDEX 01 19:38:06
FILE "2 сторона.flac" WAVE
  TRACK 08 AUDIO
TITLE "А на бокале муха"
PERFORMER "Иван Кучин"
    INDEX 01 00:00:00
  TRACK 09 AUDIO
TITLE "Нищенка"
PERFORMER "Иван Кучин"
    INDEX 01 02:19:32
  TRACK 10 AUDIO
TITLE "Запретная зона"
PERFORMER "Иван Кучин"
    INDEX 01 05:52:67
  TRACK 11 AUDIO
TITLE "Корешок"
PERFORMER "Иван Кучин"
    INDEX 01 09:21:54
  TRACK 12 AUDIO
TITLE "Судьба-злодейка"
PERFORMER "Иван Кучин"
    INDEX 01 11:58:54
  TRACK 13 AUDIO
TITLE "Сыночек"
PERFORMER "Иван Кучин"
    INDEX 01 15:37:58
  TRACK 14 AUDIO
TITLE "Сон"
PERFORMER "Иван Кучин"
    INDEX 01 19:18:31


Оцифровка с кассеты Борис 63
подача сигнала - кассетная дека -AKAI-GX 75 MK 2

     
1 сторона

Скрытый текст:

Для просмотра скрытого текста - войдите или зарегистрируйтесь.

2 сторона

Скрытый текст:

Для просмотра скрытого текста - войдите или зарегистрируйтесь.


Обложки кас.

Скрытый текст:

Для просмотра скрытого текста - войдите или зарегистрируйтесь.


Куеписец спившийся придурок с вт сруль саломонови.

0

2

0

3

Спасибо Боря да достойное качество... (Мне понравилось )

0

4

http://savepic.ru/11143633.png

0


Вы здесь » Tutnet-fufla » Шансон в форм. lossless » (24/96) Иван Кучин - запретная зона- 1997 год (lossless)