Tutnet-fufla

Объявление

Введите здесь ваше объявление.

Информация о пользователе

Привет, Гость! Войдите или зарегистрируйтесь.


Вы здесь » Tutnet-fufla » Шансон в форм. lossless » (24/96) Иван Кучин -Чикаго - 1997 год (lossless)


(24/96) Иван Кучин -Чикаго - 1997 год (lossless)

Сообщений 1 страница 2 из 2

1

(24/96) Иван Кучин -Чикаго - 1997 год (lossless)

http://i58.fastpic.ru/big/2015/0423/83/6368aad2ed5104df4fd714d82473f183.jpg

оцифровка с кассеты Борис 63
Спасибо Боря 

Треклист:

01 Иван Кучин - Шняга
02 Иван Кучин - Бандитский нож
03 Иван Кучин - Сентиментальный детектив (Часть 1)
04 Иван Кучин - За здоровье, за моё
05 Иван Кучин - Подруга по жизни
06 Иван Кучин - Босяцкая
07 Иван Кучин - Милая
08 Иван Кучин - Зечка
09 Иван Кучин - Мостик
10 Иван Кучин - Чикаго
11 Иван Кучин - Черное прошлое
12 Иван Кучин - Душа-колючка
13 Иван Кучин - Куст рябины
14 Иван Кучин - Последнее письмо

CUE:

Код:
REM GENRE "Shanson"
REM DATE 1997
REM COMMENT "Оцифровка - Борис 63"
TITLE "Чикаго"
PERFORMER "Иван Кучин"
FILE "1 сторона.flac" WAVE
  TRACK 01 AUDIO
TITLE "Шняга"
PERFORMER "Иван Кучин"
    INDEX 01 00:00:00
  TRACK 02 AUDIO
TITLE "Бандитский нож"
PERFORMER "Иван Кучин"
    INDEX 01 02:33:69
  TRACK 03 AUDIO
TITLE "Сентиментальный детектив (Часть 1)"
PERFORMER "Иван Кучин"
    INDEX 01 06:38:31
  TRACK 04 AUDIO
TITLE "За здоровье, за моё"
PERFORMER "Иван Кучин"
    INDEX 01 10:09:72
  TRACK 05 AUDIO
TITLE "Подруга по жизни"
PERFORMER "Иван Кучин"
    INDEX 01 13:00:45
  TRACK 06 AUDIO
TITLE "Босяцкая"
PERFORMER "Иван Кучин"
    INDEX 01 16:59:52
  TRACK 07 AUDIO
TITLE "Милая"
PERFORMER "Иван Кучин"
    INDEX 01 19:39:06
FILE "2 сторона.flac" WAVE
  TRACK 08 AUDIO
TITLE "Зечка"
PERFORMER "Иван Кучин"
    INDEX 01 00:00:00
  TRACK 09 AUDIO
TITLE "Мостик"
PERFORMER "Иван Кучин"
    INDEX 01 03:53:60
  TRACK 10 AUDIO
TITLE "Чикаго"
PERFORMER "Иван Кучин"
    INDEX 01 06:48:02
  TRACK 11 AUDIO
TITLE "Черное прошлое"
PERFORMER "Иван Кучин"
    INDEX 01 10:26:64
  TRACK 12 AUDIO
TITLE "Душа-колючка"
PERFORMER "Иван Кучин"
    INDEX 01 13:52:05
  TRACK 13 AUDIO
TITLE "Куст рябины"
PERFORMER "Иван Кучин"
    INDEX 01 16:42:33
  TRACK 14 AUDIO
TITLE "Последнее письмо"
PERFORMER "Иван Кучин"
    INDEX 01 20:20:39

1 сторона

Скрытый текст:

Для просмотра скрытого текста - войдите или зарегистрируйтесь.

2 сторона

Скрытый текст:

Для просмотра скрытого текста - войдите или зарегистрируйтесь.


Обложки

Скрытый текст:

Для просмотра скрытого текста - войдите или зарегистрируйтесь.

0

2

ребята качайте а то и это скоро продавать будут за деньги на вт

0


Вы здесь » Tutnet-fufla » Шансон в форм. lossless » (24/96) Иван Кучин -Чикаго - 1997 год (lossless)