Tutnet-fufla

Объявление

Введите здесь ваше объявление.

Информация о пользователе

Привет, Гость! Войдите или зарегистрируйтесь.


Вы здесь » Tutnet-fufla » Шансон в форм. lossless » (24/96) Майя Розова - Память - 1986 год [lossless]


(24/96) Майя Розова - Память - 1986 год [lossless]

Сообщений 1 страница 3 из 3

1

(24/96) Майя Розова - Память - 1986 год [lossless]

http://i60.fastpic.ru/big/2015/0425/ef/4dbe3bfd78130421619184f39992d3ef.jpg


оцифровка
Борис 63 с катушки Ильи  Спасибо

Треклист:

01 Майя Розова - Как мне забыть тебя
02 Майя Розова - Колокола
03 Майя Розова - Молодость моя
04 Майя Розова - Кокаинистка
05 Майя Розова - Не надо пистолетов
06 Майя Розова - О чём поёшь, музыкант мой
07 Майя Розова - Память
08 Майя Розова - Заметался пожар голубой
09 Майя Розова - Я люблю
10 Майя Розова - Искры камина
11 Майя Розова - Моя песня

CUE:

Код:
REM GENRE "Shanson"
REM DATE 1986
REM COMMENT "Оцифровка - Борис 63"
TITLE "Память"
PERFORMER "Майя Розова"
FILE "Майя Розова.flac" WAVE
  TRACK 01 AUDIO
TITLE "Как мне забыть тебя"
PERFORMER "Майя Розова"
    INDEX 01 00:00:00
  TRACK 02 AUDIO
TITLE "Колокола"
PERFORMER "Майя Розова"
    INDEX 01 03:34:65
  TRACK 03 AUDIO
TITLE "Молодость моя"
PERFORMER "Майя Розова"
    INDEX 01 07:29:19
  TRACK 04 AUDIO
TITLE "Кокаинистка"
PERFORMER "Майя Розова"
    INDEX 01 11:08:05
  TRACK 05 AUDIO
TITLE "Не надо пистолетов"
PERFORMER "Майя Розова"
    INDEX 01 14:34:62
  TRACK 06 AUDIO
TITLE "О чём поёшь, музыкант мой"
PERFORMER "Майя Розова"
    INDEX 01 18:19:00
  TRACK 07 AUDIO
TITLE "Память"
PERFORMER "Майя Розова"
    INDEX 01 21:51:42
  TRACK 08 AUDIO
TITLE "Заметался пожар голубой"
PERFORMER "Майя Розова"
    INDEX 01 27:10:38
  TRACK 09 AUDIO
TITLE "Я люблю"
PERFORMER "Майя Розова"
    INDEX 01 31:36:47
  TRACK 10 AUDIO
TITLE "Искры камина"
PERFORMER "Майя Розова"
    INDEX 01 35:34:23
  TRACK 11 AUDIO
TITLE "Моя песня"
PERFORMER "Майя Розова"
    INDEX 01 39:23:20
ссылка

Скрытый текст:

Для просмотра скрытого текста - войдите или зарегистрируйтесь.

0

2

Сообщение для vano6464 Здравствуйте . Качайте и слушайте муз. Тут не нужно унижаться и просить и никто не станет оскорблять если Вы поделитесь пусть и не в лучшем качестве. Все мои ком. Это чтб люди знали где и у кого взято .И кому писать слово Спасибо... Я самый грубый .но спроведливый человек и тут людям не затыкают рот Каждый в праве иметь и отстаивать своё мнение . Ну а грубости я могу свести на нет .. Это все знают . Удачи

0

3

Оц - Саша (beloborod) Модератор вт
[24/192] Майя Розова 1986 "Память" Lossless

Майя Розова 1986 "Память"

Воспроизведение : Олимп 004
Источник: Катушка
Карта : Steinberg UR 22
Качество : 24/192
Формат : FLAC
Программа: Sound Forge Pro
Размер 1,64 ГБ (1 771 194 229 байт)

01. Как мне забыть тебя
02. Колокола
03. Молодость
04. Кокаинетка
05. Не надо пистолетов (Как вам живется)
06. О чём поёшь, музыкант мой
07. Память (Убийцы)
08. Заметался пожар голубой
09. Я люблю (В первый раз)
10. Искры камина
11. Моя песня

https://cloud.mail.ru/public/L2UT/KsCauydXa

0


Вы здесь » Tutnet-fufla » Шансон в форм. lossless » (24/96) Майя Розова - Память - 1986 год [lossless]