Это интересно Скрыть

Tutnet-fufla

Информация о пользователе

Привет, Гость! Войдите или зарегистрируйтесь.


Вы здесь » Tutnet-fufla » Сборники шансон mp3 . Lossless » Андрей Никольский - сборник - (24/96) Lossless


Андрей Никольский - сборник - (24/96) Lossless

Сообщений 1 страница 2 из 2

1

Данная запись была приобретена за деньги у спившигося негодяя в ст сруля саломоновича
Все благодарности - Борис 63  ...

Андрей Никольский - сборник - (24/96) Lossless

оцифровка с катушки из личной коллекции

Треклист:

01 Захочу – взгляну на лево…
02 30 лет, как из рогатки
03 Оттолкнувшись от событий
04 Север, запад, юг, восток
05 Вновь проснулся ночью…
06 Снова тем же коллективом
07 Только вышел из вагона
08 В своём чёрном манто
09 Мама, моя милая
10 Я весь февраль пою блатные песни
11 Шли цыгане-молдаване шумною толпой
12 По снежку скользили сани...
13 Нужно все испытать самому
14 Зная,видя,понимая...
15 Так в такую погоду не пить...
16 Заслонил глаза от света...
17 Я много песен написал...
18 Ну что ты хочешь от меня
19 Памяти Владимира Высоцкого
20 Снова начал я от печки
21 В тёмном переулке в доме №3...(дураки)
22 Я понял, что споткнулся навсегда
23 Каждый раз идя на дело
24 Вот Вы опять грустны...
25 Раз-два-три-четыре-пять...
26 От закуски стол прогнулся...
27 Эх раз через раз выпивал, закусывал
28 Я просил тебя простить и забыть...
29 А теперь холодным взглядом ты глядишь и мне не рада
30 За леском за бором жил лихо с перебором
31 Что там вдали?-Моя жизнь...
32 Как прошла заря по кругу - собираться казаку...
33 Из далекой из деревни мать взяла с собой в Москву
34 Ну играй, играй гитара
35 Я так ждал и не верил, что наступит пора (Лишь с тобою небо голубое)
36 Чудом я успел пригнуться...
37 Что я хуже чем другие?
38 Я понял, что споткнулся навсегда
39 Брось, не плач, не надо, душу теребя

CUE:

Код:
REM GENRE Chanson
REM COMMENT Оцифровка Борис 63
PERFORMER "Андрей Никольский"
TITLE "Выборка"
FILE "Андрей Никольский 1.flac" WAVE
  TRACK 01 AUDIO
TITLE "Захочу – взгляну на лево…"
    PERFORMER "Андрей Никольский"
    INDEX 01 00:00:00
  TRACK 02 AUDIO
TITLE "30 лет, как из рогатки"
    PERFORMER "Андрей Никольский"
    INDEX 01 01:50:21
  TRACK 03 AUDIO
TITLE "Оттолкнувшись от событий"
    PERFORMER "Андрей Никольский"
    INDEX 01 06:34:08
  TRACK 04 AUDIO
TITLE "Север, запад, юг, восток"
    PERFORMER "Андрей Никольский"
    INDEX 01 08:43:68
  TRACK 05 AUDIO
TITLE "Вновь проснулся ночью…"
    PERFORMER "Андрей Никольский"
    INDEX 01 10:48:01
  TRACK 06 AUDIO
TITLE "Снова тем же коллективом"
    PERFORMER "Андрей Никольский"
    INDEX 01 13:56:24
  TRACK 07 AUDIO
TITLE "Только вышел из вагона"
    PERFORMER "Андрей Никольский"
    INDEX 01 17:19:40
  TRACK 08 AUDIO
TITLE "В своём чёрном манто"
    PERFORMER "Андрей Никольский"
    INDEX 01 19:44:00
  TRACK 09 AUDIO
TITLE "Мама, моя милая"
    PERFORMER "Андрей Никольский"
    INDEX 01 21:55:07
  TRACK 10 AUDIO
TITLE "Я весь февраль пою блатные песни"
    PERFORMER "Андрей Никольский"
    INDEX 01 24:11:08
  TRACK 11 AUDIO
TITLE "Шли цыгане-молдаване шумною толпой"
    PERFORMER "Андрей Никольский"
    INDEX 01 26:30:07
  TRACK 12 AUDIO
TITLE "По снежку скользили сани..."
    PERFORMER "Андрей Никольский"
    INDEX 01 27:45:40
  TRACK 13 AUDIO
TITLE "Нужно все испытать самому"
    PERFORMER "Андрей Никольский"
    INDEX 01 30:15:43
  TRACK 14 AUDIO
TITLE "Зная,видя,понимая..."
    PERFORMER "Андрей Никольский"
    INDEX 01 32:20:34
  TRACK 15 AUDIO
TITLE "Так в такую погоду не пить..."
    PERFORMER "Андрей Никольский"
    INDEX 01 35:15:20
  TRACK 16 AUDIO
TITLE "Заслонил глаза от света..."
    PERFORMER "Андрей Никольский"
    INDEX 01 36:23:57
  TRACK 17 AUDIO
TITLE "Я много песен написал..."
    PERFORMER "Андрей Никольский"
    INDEX 01 38:27:07
  TRACK 18 AUDIO
TITLE "Ну что ты хочешь от меня"
    PERFORMER "Андрей Никольский"
    INDEX 01 39:58:73
  TRACK 19 AUDIO
TITLE "Памяти Владимира Высоцкого"
    PERFORMER "Андрей Никольский"
    INDEX 01 41:59:44
FILE "Андрей Никольский 2.flac" WAVE
  TRACK 20 AUDIO
TITLE "Снова начал я от печки"
    PERFORMER "Андрей Никольский"
    INDEX 01 00:00:00
  TRACK 21 AUDIO
TITLE "В тёмном переулке в доме №3...(дураки)"
    PERFORMER "Андрей Никольский"
    INDEX 01 01:24:07
  TRACK 22 AUDIO
TITLE "Я понял, что споткнулся навсегда"
    PERFORMER "Андрей Никольский"
    INDEX 01 04:11:13
  TRACK 23 AUDIO
TITLE "Каждый раз идя на дело"
    PERFORMER "Андрей Никольский"
    INDEX 01 06:03:32
  TRACK 24 AUDIO
TITLE "Вот Вы опять грустны..."
    PERFORMER "Андрей Никольский"
    INDEX 01 07:55:37
  TRACK 25 AUDIO
TITLE "Раз-два-три-четыре-пять..."
    PERFORMER "Андрей Никольский"
    INDEX 01 10:38:47
  TRACK 26 AUDIO
TITLE "От закуски стол прогнулся..."
    PERFORMER "Андрей Никольский"
    INDEX 01 11:58:67
  TRACK 27 AUDIO
TITLE "Эх раз через раз выпивал, закусывал"
    PERFORMER "Андрей Никольский"
    INDEX 01 13:32:00
  TRACK 28 AUDIO
TITLE "Я просил тебя простить и забыть..."
    PERFORMER "Андрей Никольский"
    INDEX 01 15:13:45
  TRACK 29 AUDIO
TITLE "А теперь холодным взглядом ты глядишь и мне не рада"
    PERFORMER "Андрей Никольский"
    INDEX 01 16:43:11
  TRACK 30 AUDIO
TITLE "За леском за бором жил лихо с перебором"
    PERFORMER "Андрей Никольский"
    INDEX 01 18:02:64
  TRACK 31 AUDIO
TITLE "Что там вдали?-Моя жизнь..."
    PERFORMER "Андрей Никольский"
    INDEX 01 19:51:62
  TRACK 32 AUDIO
TITLE "Как прошла заря по кругу - собираться казаку..."
    PERFORMER "Андрей Никольский"
    INDEX 01 22:49:48
  TRACK 33 AUDIO
TITLE "Из далекой из деревни мать взяла с собой в Москву"
    PERFORMER "Андрей Никольский"
    INDEX 01 24:49:21
  TRACK 34 AUDIO
TITLE "Ну играй, играй гитара"
    PERFORMER "Андрей Никольский"
    INDEX 01 28:05:19
  TRACK 35 AUDIO
TITLE "Я так ждал и не верил, что наступит пора (Лишь с тобою небо голубое)"
    PERFORMER "Андрей Никольский"
    INDEX 01 30:35:06
  TRACK 36 AUDIO
TITLE "Чудом я успел пригнуться..."
    PERFORMER "Андрей Никольский"
    INDEX 01 31:59:57
  TRACK 37 AUDIO
TITLE "Что я хуже чем другие?"
    PERFORMER "Андрей Никольский"
    INDEX 01 35:19:51
  TRACK 38 AUDIO
TITLE "Я понял, что споткнулся навсегда"
    PERFORMER "Андрей Никольский"
    INDEX 01 38:16:56
  TRACK 39 AUDIO
TITLE "Брось, не плач, не надо, душу теребя"
    PERFORMER "Андрей Никольский"
    INDEX 01 40:10:43

1 сторона

   

Скрытый текст:

Для просмотра скрытого текста - войдите или зарегистрируйтесь.

2 сторона

Скрытый текст:

Для просмотра скрытого текста - войдите или зарегистрируйтесь.

0

2

Скажите пож .а что человек который сидел .цыфровал не достоин прочитать одно слово - Спасибо ????

0


Вы здесь » Tutnet-fufla » Сборники шансон mp3 . Lossless » Андрей Никольский - сборник - (24/96) Lossless