Это интересно Скрыть

Tutnet-fufla

Объявление

Информация о пользователе

Привет, Гость! Войдите или зарегистрируйтесь.


Вы здесь » Tutnet-fufla » Аркадий Северный Записи и концерты » Аркадий Северный - Мальчишник (анекдоты)


Аркадий Северный - Мальчишник (анекдоты)

Сообщений 1 страница 5 из 5

1

Аркадий Северный  - Мальчишник (анекдоты)

http://yadi.sk/d/rqW1Uq0wLJFzH

СЕВЕРНЫЙ - АНЕКДОТЫ #1.cue

Код:
REM GENRE "Анекдоты"
REM DATE 1978
REM COMMENT "Оцифровка - Борис 63"
TITLE "Мальчишник (анекдоты)-1"
PERFORMER "Аркадий Северный и Коцишевский"
FILE "side 1.flac" WAVE
  TRACK 01 AUDIO
TITLE "Вступление"
PERFORMER "Аркадий Северный и Коцишевский"
    INDEX 01 00:02:54
  TRACK 02 AUDIO
TITLE "Встречаются двое"
PERFORMER "Аркадий Северный и Коцишевский"
    INDEX 01 01:23:58
  TRACK 03 AUDIO
TITLE "В кино свет потушили"
PERFORMER "Аркадий Северный и Коцишевский"
    INDEX 01 02:07:44
  TRACK 04 AUDIO
TITLE "В этом баре Красном сидят двое"
PERFORMER "Аркадий Северный и Коцишевский"
    INDEX 01 03:09:73
  TRACK 05 AUDIO
TITLE "Гостиница. Номер. В номере - грузин"
PERFORMER "Аркадий Северный и Коцишевский"
    INDEX 01 03:53:53
  TRACK 06 AUDIO
TITLE "Спорт. Отдай Гиви мяч"
PERFORMER "Аркадий Северный и Коцишевский"
    INDEX 01 04:49:48
  TRACK 07 AUDIO
TITLE "К доктору заходит грузин"
PERFORMER "Аркадий Северный и Коцишевский"
    INDEX 01 05:14:70
  TRACK 08 AUDIO
TITLE "Это… Заходит тоже грузин к доктору"
PERFORMER "Аркадий Северный и Коцишевский"
    INDEX 01 05:36:08
  TRACK 09 AUDIO
TITLE "А другой грузин приходит к доктору"
PERFORMER "Аркадий Северный и Коцишевский"
    INDEX 01 06:04:38
  TRACK 10 AUDIO
TITLE "А другой грузин приходит к доктору"
PERFORMER "Аркадий Северный и Коцишевский"
    INDEX 01 06:19:05
  TRACK 11 AUDIO
TITLE "Грузин заходит в ресторан"
PERFORMER "Аркадий Северный и Коцишевский"
    INDEX 01 06:55:43
  TRACK 12 AUDIO
TITLE "Два человека, сидящих за столом"
PERFORMER "Аркадий Северный и Коцишевский"
    INDEX 01 07:49:56
  TRACK 13 AUDIO
TITLE "Один грузин где-то у нас в Одессе"
PERFORMER "Аркадий Северный и Коцишевский"
    INDEX 01 08:30:66
  TRACK 14 AUDIO
TITLE "Идет поезд Одесса-Владивосток"
PERFORMER "Аркадий Северный и Коцишевский"
    INDEX 01 09:07:69
  TRACK 15 AUDIO
TITLE "Златые кольца и браслет ваш на руке"
PERFORMER "Аркадий Северный и Коцишевский"
    INDEX 01 14:00:07
  TRACK 16 AUDIO
TITLE "Да. Кто с кем только не встречается"
PERFORMER "Аркадий Северный и Коцишевский"
    INDEX 01 16:01:18
  TRACK 17 AUDIO
TITLE "И вот война. Два наркома сидят в окопе"
PERFORMER "Аркадий Северный и Коцишевский"
    INDEX 01 16:24:53
  TRACK 18 AUDIO
TITLE "А вот заходит один товарищ к другому в гости"
PERFORMER "Аркадий Северный и Коцишевский"
    INDEX 01 16:51:31
  TRACK 19 AUDIO
TITLE "И вот встречаются два товарища"
PERFORMER "Аркадий Северный и Коцишевский"
    INDEX 01 17:14:74
  TRACK 20 AUDIO
TITLE "Вот два товарища опять"
PERFORMER "Аркадий Северный и Коцишевский"
    INDEX 01 17:59:11
  TRACK 21 AUDIO
TITLE "Идет тоже мужик, алкаш"
PERFORMER "Аркадий Северный и Коцишевский"
    INDEX 01 18:35:30
  TRACK 22 AUDIO
TITLE "Ну, как всем известно, наша бывшая царица"
PERFORMER "Аркадий Северный и Коцишевский"
    INDEX 01 19:01:24
  TRACK 23 AUDIO
TITLE "Чувак заходит в магазин"
PERFORMER "Аркадий Северный и Коцишевский"
    INDEX 01 20:16:40
  TRACK 24 AUDIO
TITLE "Вот один бедняга"
PERFORMER "Аркадий Северный и Коцишевский"
    INDEX 01 21:34:12
  TRACK 25 AUDIO
TITLE "У грузчиков случился вот такой вариант"
PERFORMER "Аркадий Северный и Коцишевский"
    INDEX 01 22:12:06
  TRACK 26 AUDIO
TITLE "Театр. Идет 'Отелло'"
PERFORMER "Аркадий Северный и Коцишевский"
    INDEX 01 23:14:22
  TRACK 27 AUDIO
TITLE "Жалуется старушка милиционеру"
PERFORMER "Аркадий Северный и Коцишевский"
    INDEX 01 24:08:21
  TRACK 28 AUDIO
TITLE "В домоуправлении идет собрание"
PERFORMER "Аркадий Северный и Коцишевский"
    INDEX 01 24:28:66
  TRACK 29 AUDIO
TITLE "В чайной сидят два старика"
PERFORMER "Аркадий Северный и Коцишевский"
    INDEX 01 25:06:54
  TRACK 30 AUDIO
TITLE "Опаздываю на работу, выскакиваю из парадной"
PERFORMER "Аркадий Северный и Коцишевский"
    INDEX 01 25:39:69
  TRACK 31 AUDIO
TITLE "Встречаются два еврея"
PERFORMER "Аркадий Северный и Коцишевский"
    INDEX 01 26:10:51
  TRACK 32 AUDIO
TITLE "Идут двое евреев по пустыни Сахара"
PERFORMER "Аркадий Северный и Коцишевский"
    INDEX 01 26:59:69
  TRACK 33 AUDIO
TITLE "Война. Летят пули"
PERFORMER "Аркадий Северный и Коцишевский"
    INDEX 01 27:45:21
  TRACK 34 AUDIO
TITLE "И вот один полк получил задание"
PERFORMER "Аркадий Северный и Коцишевский"
    INDEX 01 28:32:61
  TRACK 35 AUDIO
TITLE "Это - Каир. Сидят двое"
PERFORMER "Аркадий Северный и Коцишевский"
    INDEX 01 29:31:43
  TRACK 36 AUDIO
TITLE "Поп обижается"
PERFORMER "Аркадий Северный и Коцишевский"
    INDEX 01 30:06:67
  TRACK 37 AUDIO
TITLE "Село. Таке село… Украинское село"
PERFORMER "Аркадий Северный и Коцишевский"
    INDEX 01 30:35:43
  TRACK 38 AUDIO
TITLE "Директор цирка, торопясь на работу"
PERFORMER "Аркадий Северный и Коцишевский"
    INDEX 01 31:20:45
  TRACK 39 AUDIO
TITLE "Чудак летит с небоскреба"
PERFORMER "Аркадий Северный и Коцишевский"
    INDEX 01 32:10:49
  TRACK 40 AUDIO
TITLE "И вот группа медиков решили сделать"
PERFORMER "Аркадий Северный и Коцишевский"
    INDEX 01 32:24:28
  TRACK 41 AUDIO
TITLE "Звонок в квартиру"
PERFORMER "Аркадий Северный и Коцишевский"
    INDEX 01 33:34:46
  TRACK 42 AUDIO
TITLE "А это - канадская делегация"
PERFORMER "Аркадий Северный и Коцишевский"
    INDEX 01 34:29:59
  TRACK 43 AUDIO
TITLE "Дорога. Перекресток. Едет автомобиль"
PERFORMER "Аркадий Северный и Коцишевский"
    INDEX 01 35:12:55
  TRACK 44 AUDIO
TITLE "Ресторан. Играет музыка. Сидит за столом"
PERFORMER "Аркадий Северный и Коцишевский"
    INDEX 01 35:36:63
  TRACK 45 AUDIO
TITLE "Грузин пригласил одну женщину"
PERFORMER "Аркадий Северный и Коцишевский"
    INDEX 01 36:25:24
  TRACK 46 AUDIO
TITLE "Грузин пригласил одну в ресторан"
PERFORMER "Аркадий Северный и Коцишевский"
    INDEX 01 37:00:06
  TRACK 47 AUDIO
TITLE "Глухонемой заходит в магазин"
PERFORMER "Аркадий Северный и Коцишевский"
    INDEX 01 37:21:30
  TRACK 48 AUDIO
TITLE "Встречаются, лет через пятнадцать"
PERFORMER "Аркадий Северный и Коцишевский"
    INDEX 01 38:05:68
  TRACK 49 AUDIO
TITLE "Зима. Невский проспект"
PERFORMER "Аркадий Северный и Коцишевский"
    INDEX 01 39:17:67
  TRACK 50 AUDIO
TITLE "Гусары. Бал. Танцуют"
PERFORMER "Аркадий Северный и Коцишевский"
    INDEX 01 39:54:45
  TRACK 51 AUDIO
TITLE "Наташу опять шампанским привели в чувство"
PERFORMER "Аркадий Северный и Коцишевский"
    INDEX 01 40:39:65
  TRACK 52 AUDIO
TITLE "Франция. Париж. Висит объявление"
PERFORMER "Аркадий Северный и Коцишевский"
    INDEX 01 41:03:38
  TRACK 53 AUDIO
TITLE "Едет машина. И вдруг шофер видит"
PERFORMER "Аркадий Северный и Коцишевский"
    INDEX 01 42:17:35
  TRACK 54 AUDIO
TITLE "Едет машина. И вдруг шофер видит"
PERFORMER "Аркадий Северный и Коцишевский"
    INDEX 01 42:32:37
  TRACK 55 AUDIO
TITLE "Суд. Судье отвечают на вопросы"
PERFORMER "Аркадий Северный и Коцишевский"
    INDEX 01 43:34:15
  TRACK 56 AUDIO
TITLE "Обеденный перерыв. Рабочие стоят"
PERFORMER "Аркадий Северный и Коцишевский"
    INDEX 01 44:06:59




ЕВЕРНЫЙ - АНЕКДОТЫ #2..cue

Код:
REM GENRE "Анекдоты"
REM DATE 1978
REM COMMENT "Оцифровка - Борис 63"
TITLE "Мальчишник (анекдоты)-2"
PERFORMER "Аркадий Северный и Коцишевский"
FILE "side 2.flac" WAVE
  TRACK 01 AUDIO
TITLE "Интро+Над Тихоней речкой рос с березой клен"
PERFORMER "Аркадий Северный и Коцишевский"
    INDEX 01 00:00:00
  TRACK 02 AUDIO
TITLE "Все говорят, что моряки - большие пьяницы"
PERFORMER "Аркадий Северный и Коцишевский"
    INDEX 01 05:54:47
  TRACK 03 AUDIO
TITLE "Один парень устраивается на работу"
PERFORMER "Аркадий Северный и Коцишевский"
    INDEX 01 09:40:06
  TRACK 04 AUDIO
TITLE "Боцман забегает к капитану"
PERFORMER "Аркадий Северный и Коцишевский"
    INDEX 01 10:39:30
  TRACK 05 AUDIO
TITLE "Один капитан проплавал сорок лет"
PERFORMER "Аркадий Северный и Коцишевский"
    INDEX 01 10:56:18
  TRACK 06 AUDIO
TITLE "Вот, значит, капитан стоит на мостике"
PERFORMER "Аркадий Северный и Коцишевский"
    INDEX 01 11:38:56
  TRACK 07 AUDIO
TITLE "Вот, значит, стоит наш теплоход"
PERFORMER "Аркадий Северный и Коцишевский"
    INDEX 01 12:05:70
  TRACK 08 AUDIO
TITLE "Плывет наш теплоход и вдруг"
PERFORMER "Аркадий Северный и Коцишевский"
    INDEX 01 12:38:04
  TRACK 09 AUDIO
TITLE "Лайнер поднимается в воздух"
PERFORMER "Аркадий Северный и Коцишевский"
    INDEX 01 13:30:00
  TRACK 10 AUDIO
TITLE "В Одессе ночь. Прекрасная ночь"
PERFORMER "Аркадий Северный и Коцишевский"
    INDEX 01 14:26:24
  TRACK 11 AUDIO
TITLE "Женился один чудак"
PERFORMER "Аркадий Северный и Коцишевский"
    INDEX 01 14:41:72
  TRACK 12 AUDIO
TITLE "Польский монашка идет по лесу"
PERFORMER "Аркадий Северный и Коцишевский"
    INDEX 01 14:52:03
  TRACK 13 AUDIO
TITLE "Встреча двух евреев в Лондоне"
PERFORMER "Аркадий Северный и Коцишевский"
    INDEX 01 15:35:40
  TRACK 14 AUDIO
TITLE "Вагон. Переполненный Одесский вагон"
PERFORMER "Аркадий Северный и Коцишевский"
    INDEX 01 16:15:05
  TRACK 15 AUDIO
TITLE "Ковбойский. Бар. Сидят в баре двое"
PERFORMER "Аркадий Северный и Коцишевский"
    INDEX 01 16:47:18
  TRACK 16 AUDIO
TITLE "Вот наша Россия. Украина"
PERFORMER "Аркадий Северный и Коцишевский"
    INDEX 01 17:28:22
  TRACK 17 AUDIO
TITLE "Болото. В болоте - голова"
PERFORMER "Аркадий Северный и Коцишевский"
    INDEX 01 18:01:59
  TRACK 18 AUDIO
TITLE "Реклама. Кубань"
PERFORMER "Аркадий Северный и Коцишевский"
    INDEX 01 18:33:38
  TRACK 19 AUDIO
TITLE "Петя в болоте"
PERFORMER "Аркадий Северный и Коцишевский"
    INDEX 01 19:06:22
  TRACK 20 AUDIO
TITLE "Грузин. Едет. Навстречу большая машина"
PERFORMER "Аркадий Северный и Коцишевский"
    INDEX 01 19:14:14
  TRACK 21 AUDIO
TITLE "Гастроном ограбили"
PERFORMER "Аркадий Северный и Коцишевский"
    INDEX 01 19:52:73
  TRACK 22 AUDIO
TITLE "Две жены, женщины сидят"
PERFORMER "Аркадий Северный и Коцишевский"
    INDEX 01 20:26:63
  TRACK 23 AUDIO
TITLE "Жена одна поссорились с мужем"
PERFORMER "Аркадий Северный и Коцишевский"
    INDEX 01 20:53:01
  TRACK 24 AUDIO
TITLE "Университет. Аудитория. Стоит студент"
PERFORMER "Аркадий Северный и Коцишевский"
    INDEX 01 21:07:74
  TRACK 25 AUDIO
TITLE "Два алкаша встретились на улице"
PERFORMER "Аркадий Северный и Коцишевский"
    INDEX 01 21:43:35
  TRACK 26 AUDIO
TITLE "Пустыня. Идет верблюд"
PERFORMER "Аркадий Северный и Коцишевский"
    INDEX 01 22:17:69
  TRACK 27 AUDIO
TITLE "Двое в камере"
PERFORMER "Аркадий Северный и Коцишевский"
    INDEX 01 23:04:38
  TRACK 28 AUDIO
TITLE "Ад. Попадает грешник туда"
PERFORMER "Аркадий Северный и Коцишевский"
    INDEX 01 23:20:15
  TRACK 29 AUDIO
TITLE "Жилкоповский туалет"
PERFORMER "Аркадий Северный и Коцишевский"
    INDEX 01 23:59:60
  TRACK 30 AUDIO
TITLE "Абстрактный проснулся один чудак"
PERFORMER "Аркадий Северный и Коцишевский"
    INDEX 01 24:47:40
  TRACK 31 AUDIO
TITLE "Интеллигент заходит в аптеку"
PERFORMER "Аркадий Северный и Коцишевский"
    INDEX 01 25:04:45
  TRACK 32 AUDIO
TITLE "Второй заходит массовик"
PERFORMER "Аркадий Северный и Коцишевский"
    INDEX 01 25:34:02
  TRACK 33 AUDIO
TITLE "С деревни приезжает мужик"
PERFORMER "Аркадий Северный и Коцишевский"
    INDEX 01 25:45:20
  TRACK 34 AUDIO
TITLE "Это из села Кукуево"
PERFORMER "Аркадий Северный и Коцишевский"
    INDEX 01 26:02:13
  TRACK 35 AUDIO
TITLE "Вот, значит, очередь в магазине"
PERFORMER "Аркадий Северный и Коцишевский"
    INDEX 01 26:51:35
  TRACK 36 AUDIO
TITLE "Наша родная Дерибасовская"
PERFORMER "Аркадий Северный и Коцишевский"
    INDEX 01 27:41:07
  TRACK 37 AUDIO
TITLE "Идет мент по Дерибасовской"
PERFORMER "Аркадий Северный и Коцишевский"
    INDEX 01 28:30:51
  TRACK 38 AUDIO
TITLE "Дочка Мама! Наш папа мужчина"
PERFORMER "Аркадий Северный и Коцишевский"
    INDEX 01 29:32:28
  TRACK 39 AUDIO
TITLE "Детский сад. Идет обсуждение"
PERFORMER "Аркадий Северный и Коцишевский"
    INDEX 01 29:40:42
  TRACK 40 AUDIO
TITLE "Школа. Учительница задает вопрос"
PERFORMER "Аркадий Северный и Коцишевский"
    INDEX 01 30:02:44
  TRACK 41 AUDIO
TITLE "Девочка со скакалкой прыгает"
PERFORMER "Аркадий Северный и Коцишевский"
    INDEX 01 30:56:51
  TRACK 42 AUDIO
TITLE "Папа в квартире с сыном"
PERFORMER "Аркадий Северный и Коцишевский"
    INDEX 01 31:13:66
  TRACK 43 AUDIO
TITLE "В очень шпанистый класс"
PERFORMER "Аркадий Северный и Коцишевский"
    INDEX 01 31:54:13
  TRACK 44 AUDIO
TITLE "Второй урок зоологии"
PERFORMER "Аркадий Северный и Коцишевский"
    INDEX 01 32:44:58
  TRACK 45 AUDIO
TITLE "Пети два, этого, два дня не было"
PERFORMER "Аркадий Северный и Коцишевский"
    INDEX 01 33:09:27
  TRACK 46 AUDIO
TITLE "Сын приходит домой"
PERFORMER "Аркадий Северный и Коцишевский"
    INDEX 01 33:37:67
  TRACK 47 AUDIO
TITLE "У одного офицера"
PERFORMER "Аркадий Северный и Коцишевский"
    INDEX 01 33:52:50
  TRACK 48 AUDIO
TITLE "Колхоз Большое Дышло"
PERFORMER "Аркадий Северный и Коцишевский"
    INDEX 01 34:18:58
  TRACK 49 AUDIO
TITLE "В этом же колхозе случилось"
PERFORMER "Аркадий Северный и Коцишевский"
    INDEX 01 35:08:35
  TRACK 50 AUDIO
TITLE "А штатники выдумали новый аппарат"
PERFORMER "Аркадий Северный и Коцишевский"
    INDEX 01 36:01:50
  TRACK 51 AUDIO
TITLE "Это, значит, ООН"
PERFORMER "Аркадий Северный и Коцишевский"
    INDEX 01 37:21:34
  TRACK 52 AUDIO
TITLE "Птичий базар"
PERFORMER "Аркадий Северный и Коцишевский"
    INDEX 01 38:37:55
  TRACK 53 AUDIO
TITLE "А это было в недалекие времена"
PERFORMER "Аркадий Северный и Коцишевский"
    INDEX 01 39:22:10
  TRACK 54 AUDIO
TITLE "Где среди пампасов бегают бизоны"
PERFORMER "Аркадий Северный и Коцишевский"
    INDEX 01 40:10:37
  TRACK 55 AUDIO
TITLE "Жил я в шумном городе Одесса"
PERFORMER "Аркадий Северный и Коцишевский"
    INDEX 01 42:21:20
  TRACK 56 AUDIO
TITLE "Заключение"
PERFORMER "Аркадий Северный и Коцишевский"
    INDEX 01 44:54:47
Качайте парни действ. интересная запись

http://i59.fastpic.ru/big/2014/0327/fe/558d93b2549b498a248a927d6c7c65fe.png

0

2

Александр спасибо за Мальчишник.
Благодарности человеку который поделился с людьми записью и сохранил её.
Спасибо припизднутому Админу Дмитрию, что не запоролил и не удалил.
Мне понравилось,в крайнем случае почище чем у меня, заменил.
Показалось,что неполный концерт, чегото нехватает, надо сравнить.

0

3

Вроде по времени чуть меньше?

0

4

http://i66.fastpic.ru/big/2015/1013/ef/7e9ce2d24d69905646babe30e24999ef.png

0

5

http://i67.fastpic.ru/big/2015/1013/3a/61df6070df5fa9e25adbb02988f0f93a.png

0


Вы здесь » Tutnet-fufla » Аркадий Северный Записи и концерты » Аркадий Северный - Мальчишник (анекдоты)