Tutnet-fufla

Объявление

Введите здесь ваше объявление.

Информация о пользователе

Привет, Гость! Войдите или зарегистрируйтесь.


Вы здесь » Tutnet-fufla » Аркадий Северный Записи и концерты » Аркадий Северный и анс. "Светофор" - Моя судьба


Аркадий Северный и анс. "Светофор" - Моя судьба

Сообщений 1 страница 2 из 2

1

Аркадий Северный и анс. "Светофор" - Моя судьба

Исполнитель: Аркадий Северный и анс. "Светофор"
Альбом: Моя судьба /26.08.1976/
Год выпуска: 1976
Жанр: Шансон
Формат: FLAC (image + cue)
Качество: 24/96
Размер архива: 1,8 гб

Содержание:

сторона А
01 - Вступление.Ты вошла в мою судьбу...
02 - Последний желтый лист...
03 - Ты помнишь чудный, ясный вечер мая...
04 - Искры камина горят как рубины...
05 - Пой, же пой, на проклятой гитаре...
06 - Мой папаша были дворник...
07 - Научи пилить на скрипочке...
08 - Ты меня не любишь, не жалеешь...
09 - Пара гнедых, запряженных с зарею...
10 - Ярко светит луна, схоронясь за листвою... (не полн.)

https://yadi.sk/d/Gwbra6X1gQirB

сторона Б
01 - Не жалею, не зову, не плачу...
02 - День и ночь по эфиру несется...
03 - Милая не бойся, я не груб...
04 - Как вы дороги нам, наши милые мамы...
05 - Я однажды гулял по столице...
06 - Пускай ты выпита другим...
07 - Чайный домик, словно бомбаньерка...
08 - Вечер черные брови насупил...
09 - Миленький мой, ну возьми меня с собой...
10 - В наш цыганский табор за рекою...

https://yadi.sk/d/mXhQWdvUgQia5


Комментарий к релизу:

Устройство воспроизведения: Дека AIWA AD-F850
АЦП: ASUS Xonar Essense STX
Программа-оцифровщик: WaveLab 6.0
Обработка: не проводилась
Оцифровка: PUSSEN
Источник оцифровки: кассета из личной коллекции
Наличие сканов в раздаче: нет
Примечания: Запись не порезана, CUE прописан вручную.
По каталогу И.Ефимова:
15. Я однажды гулял по столице… 3:50
У меня - 5:37

PUSSEN
Спасибо за релиз

0

2

(24/96) Аркадий Северный с анс.СВЕТОФОР - моя судьба - 1976 год (lossless)


Оцифровка с катушки Борис 63
Как говорит сруль саломонович запись ну очень хорошая ....
я выкинуло этот шедевр Сами решайте ...
.

светофор 1.flac
Размер: 949,2 МБ

http://savepic.su/6426645.jpg

https://yadi.sk/mail/?hash=KgOEj8j/aV5pV8mDaVlI+SstDhkWNPrsuHdTkW9xfKs=&uid=193190115

светофор 2.flac
Размер: 956,5 МБ

http://savepic.su/6437909.jpg

https://yadi.sk/mail/?hash=ZPYIKFBOK6+JmJJLuflNadV3VekQvv7oAI44nQBtdMg=&uid=193190115

01 Аркадий Северный с анс.'Светофор' - Интро + Ты вошла в мою судьбу, не спросив меня…
02 Аркадий Северный с анс.'Светофор' - Последний желтый лист, кружась упал в траву…
03 Аркадий Северный с анс.'Светофор' - Ты помнишь чудный, ясный вечер мая, и луны сверкающий опал…
04 Аркадий Северный с анс.'Светофор' - Искры камина горят как рубины, переливаясь дымком голубым…
05 Аркадий Северный с анс.'Светофор' - Пой, же пой, на проклятой гитаре…
06 Аркадий Северный с анс.'Светофор' - Мой папаша были дворник, а мамаша барыня…
07 Аркадий Северный с анс.'Светофор' - Научи пилить на скрипочке…
08 Аркадий Северный с анс.'Светофор' - Ты меня не любишь, не жалеешь…
09 Аркадий Северный с анс.'Светофор' - Пара гнедых, запряженных с зарею…
10 Аркадий Северный с анс.'Светофор' - Ярко светит луна, схоронясь за листвою… (обрыв)

11 Аркадий Северный с анс.'Светофор' - Ярко светит луна, схоронясь за листвою…
12 Аркадий Северный с анс.'Светофор' - Не жалею, не зову, не плачу…
13 Аркадий Северный с анс.'Светофор' - День и ночь по эфиру несется...
14 Аркадий Северный с анс.'Светофор' - Милая, не бойся, я не груб…
15 Аркадий Северный с анс.'Светофор' - Как вы дороги нам, наши милые мамы…
16 Аркадий Северный с анс.'Светофор' - Я однажды гулял по столице…
17 Аркадий Северный с анс.'Светофор' - Пускай ты выпита другим, но мне осталось, мне осталось…
18 Аркадий Северный с анс.'Светофор' - Чайный домик, словно бомбаньерка…
19 Аркадий Северный с анс.'Светофор' - Вечер черные брови насупил, чьи-то кони стоят у двора…
20 Аркадий Северный с анс.'Светофор' - Миленький мой, ну возьми меня с собой…

REM GENRE "Блат"
REM DATE 1976
REM COMMENT "Оцифровка - Борис 63"
TITLE "Моя судьба"
PERFORMER "Аркадий Северный с анс.'Светофор'"
FILE "светофор 1.flac" WAVE
  TRACK 01 AUDIO
TITLE "Интро + Ты вошла в мою судьбу, не спросив меня…"
PERFORMER "Аркадий Северный с анс.'Светофор'"
    INDEX 01 00:04:16
  TRACK 02 AUDIO
TITLE "Последний желтый лист, кружась упал в траву…"
PERFORMER "Аркадий Северный с анс.'Светофор'"
    INDEX 01 04:31:27
  TRACK 03 AUDIO
TITLE "Ты помнишь чудный, ясный вечер мая, и луны сверкающий опал…"
PERFORMER "Аркадий Северный с анс.'Светофор'"
    INDEX 01 08:18:43
  TRACK 04 AUDIO
TITLE "Искры камина горят как рубины, переливаясь дымком голубым…"
PERFORMER "Аркадий Северный с анс.'Светофор'"
    INDEX 01 12:27:48
  TRACK 05 AUDIO
TITLE "Пой, же пой, на проклятой гитаре…"
PERFORMER "Аркадий Северный с анс.'Светофор'"
    INDEX 01 17:27:50
  TRACK 06 AUDIO
TITLE "Мой папаша были дворник, а мамаша барыня…"
PERFORMER "Аркадий Северный с анс.'Светофор'"
    INDEX 01 24:36:63
  TRACK 07 AUDIO
TITLE "Научи пилить на скрипочке…"
PERFORMER "Аркадий Северный с анс.'Светофор'"
    INDEX 01 30:33:43
  TRACK 08 AUDIO
TITLE "Ты меня не любишь, не жалеешь… "
PERFORMER "Аркадий Северный с анс.'Светофор'"
    INDEX 01 32:56:19
  TRACK 09 AUDIO
TITLE "Пара гнедых, запряженных с зарею…"
PERFORMER "Аркадий Северный с анс.'Светофор'"
    INDEX 01 37:19:33
  TRACK 10 AUDIO
TITLE "Ярко светит луна, схоронясь за листвою… (обрыв)"
PERFORMER "Аркадий Северный с анс.'Светофор'"
    INDEX 01 43:11:68
FILE "светофор 2.flac" WAVE
  TRACK 11 AUDIO
TITLE "Ярко светит луна, схоронясь за листвою…"
PERFORMER "Аркадий Северный с анс.'Светофор'"
    INDEX 01 00:02:13
  TRACK 12 AUDIO
TITLE "Не жалею, не зову, не плачу…"
PERFORMER "Аркадий Северный с анс.'Светофор'"
    INDEX 01 04:50:16
  TRACK 13 AUDIO
TITLE "День и ночь по эфиру несется..."
PERFORMER "Аркадий Северный с анс.'Светофор'"
    INDEX 01 09:39:60
  TRACK 14 AUDIO
TITLE "Милая, не бойся, я не груб…"
PERFORMER "Аркадий Северный с анс.'Светофор'"
    INDEX 01 14:48:71
  TRACK 15 AUDIO
TITLE "Как вы дороги нам, наши милые мамы…"
PERFORMER "Аркадий Северный с анс.'Светофор'"
    INDEX 01 20:30:10
  TRACK 16 AUDIO
TITLE "Я однажды гулял по столице… "
PERFORMER "Аркадий Северный с анс.'Светофор'"
    INDEX 01 24:50:26
  TRACK 17 AUDIO
TITLE "Пускай ты выпита другим, но мне осталось, мне осталось…"
PERFORMER "Аркадий Северный с анс.'Светофор'"
    INDEX 01 29:12:13
  TRACK 18 AUDIO
TITLE "Чайный домик, словно бомбаньерка…"
PERFORMER "Аркадий Северный с анс.'Светофор'"
    INDEX 01 32:40:17
  TRACK 19 AUDIO
TITLE "Вечер черные брови насупил, чьи-то кони стоят у двора…"
PERFORMER "Аркадий Северный с анс.'Светофор'"
    INDEX 01 36:32:54
  TRACK 20 AUDIO
TITLE "Миленький мой, ну возьми меня с собой…"
PERFORMER "Аркадий Северный с анс.'Светофор'"
    INDEX 01 41:46:28

...............................................

От Американца


Северный Аркадий с анс.Светофор - Моя судьба 1976(320)

01-Ты вошла в мою судьбу…
02-Последний желтый лист…
03-Ты помнишь чудный, ясный вечер мая…
04-Искры камина горят как рубины…
05-Пой, же пой, на проклятой гитаре…
06-Мой папаша были дворник…
07-Научи пилить на скрипочке…
08-Ты меня не любишь, не жалеешь…
09-Пара гнедых, запряженных с зарею…
10-Ярко светит луна, схоронясь за листвою…
11-Не жалею, не зову, не плачу…
- Есть много пародий на многие песни, и мы щас одну её исполним. Называется “Вы служите - мы замуж пойдем”.
12-День и ночь по эфиру несется…
13-Милая не бойся, я не груб…
14-Как вы дороги нам, наши милые мамы…
15-Я однажды гулял по столице…
16-Пускай ты выпита другим…
17-Чайный домик, словно бомбаньерка…
18-Вечер черные брови насупил…
19-Миленький мой, ну возьми меня с собой…
20-В наш цыганский табор за рекою…
21-Прибыла в Одессу банда с Ленинграда… (смикш.)

27 августа 1976 г., Ленинград, запись - Д. М. Калятин, С. И. Маклаков (-?)

сылки на FTP:

http://www.shanson-plus.ru/forums/ftp/g … syd'ba.rar

Пароль:  shanson-plus.ru

http://savepic.su/6469652.jpg

0


Вы здесь » Tutnet-fufla » Аркадий Северный Записи и концерты » Аркадий Северный и анс. "Светофор" - Моя судьба