Это интересно Скрыть

Tutnet-fufla

Объявление

Информация о пользователе

Привет, Гость! Войдите или зарегистрируйтесь.


Вы здесь » Tutnet-fufla » Музыка разных жанров » Виктор Зинчук - 7 альбомов (1998-2011) Lossless


Виктор Зинчук - 7 альбомов (1998-2011) Lossless

Сообщений 1 страница 2 из 2

1

данный ревлиз
приватизировал у спившигося негодяя с вт который
называет себя Админ. муз. груп. ДМИТРИЙ - СРУЛЬ
он банит и оскорбляет польз. проваципуя на оскорбления и мат.... .
Он никогда не был Админ. ВТ это спившийся самозванец.....
дорвавшийся до власти...
Этого негодяя гонят со всех муз. ресурсов.
Это не оговор - это правда..

Виктор Зинчук - 7 альбомов (1998-2011) Lossless
Жанр: Rock
Год выпуска диска: 1998-2011
Производитель диска: Россия
Аудио кодек: WAVPack
Тип рипа: image+.cue
Битрейт аудио: lossless
Продолжительность: 6CD

1998 - Неоклассика (переиздание 2003)

01 - Полонез (М.Огинский) (2:39)
02 - Тарантелла (Дж.Россини) (4:11)
03 - Блюз (В.Зинчук) (5:48)
04 - Кукушка (Л.-К.Дакен) (1:42)
05 - Скерцо си-минор (И.-С.Бах) (1:44)
06 - Летняя гроза (А.Вивальди) (3:05)
07 - Бурре (В.Зинчук) (1:16)
08 - Колыбельная для Антуанетты (В.Зинчук) (1:42)
09 - Прелюдия до-минор (И.-С.Бах) (2:17)
10 - Фуга до-минор (И.-С.Бах) (1:36)
11 - Аве Мария (Ф.Шуберт) (7:12)
12 - Одинокий в ночи (В.Зинчук)

http://yadi.sk/d/7u3FBBrC20Li

2000 - Неолирика

1. Лолита
2. Зелёные Рукава
3. Я Влюблён В Тебя
4. Мелодия из к/ф 'Крёстный Отец
5. Только Ты
6. Романс Гомеса
7. Мама Мне Грустно
8. Придорожное Кафе
9. Дом Восходящего Солнца
10. Концерт Аранхуэс (Адажио)
11. Полет Орла
12. Топор Йекети
13. Целуй Меня Крепче
14. Брошенный Под Дождем

http://yadi.sk/d/eg-SaOzA20Mc

2002 - Амадеус 146

01 - Соната №14 'Лунная' (4:17)
02 - Менуэт из нотной тетради Анны Магдалены Бах (4:17)
03 - Концерт №1 ля-минор (4:10)
04 - Ария из оркестровой сюиты (D-dur) (4:40)
05 - Амадеус №146 (7:52)
06 - Вуаль Лауры (3:35)
07 - Симфония из партиты до-минор (4:04)
08 - Серенада (3:32)
09 - Полуночный танец благородного призрака (5:26)
10 - Утро бедного Людовика (2:13)
11 - Хорал (кантата №147) (6:07)
12 - Амадеус №146 (radio edit)

http://yadi.sk/d/5QBSJ5z920NC

2002 - Одинокий в ночи

01 - Одинокий в ночи (6:28)
02 - Каприз № 24 (2:27)
03 - Колыбельная (6:26)
04 - Микс (3:11)
05 - Брошенный под дождем (4:11)
06 - Тарантелла (4:16)
07 - Полонез (2:43)
08 - Скрецо си-минор (1:49)
09 - Не возвратить (4:59)
10 - El condor pasa (4:22)
11 - Прощание

http://yadi.sk/d/ASaN-oja20NU

0

2

(24/96) Виктор Зинчук - 1990 год (lossless)
.
http://i91.fastpic.ru/big/2017/0107/4b/09a31b1a87dae904bb9e17f93501bc4b.jpg

Оцифровка Борис 63 с катушки купленной Александром (Вит70)
Спасибо ему.

треклист

01 Вступление
02 Открой душу в радость
03 Горит свеча
04 Бумеранг
05 Заколдованный круг
06 Сад
07 Инструментал
08 Не бросай камнем
09 Старый органист
10 Инструментал
Дописка:
11 О.Рожнова - Мы все зависим друг от друга

ссылка FLAC + CUE:

https://yadi.sk/mail/?hash=W533fHKIGqbxDGXx6dMLpXkt+DH6lbA/uSRYn4fFvyg=&uid=423865181

REM GENRE "Рок"
REM DATE 1990
REM COMMENT "Оцифровка - Борис 63"
TITLE "Магнитоальбом"
PERFORMER "Виктор Зинчук"
FILE "Зинчук 1990.flac" WAVE
  TRACK 01 AUDIO
TITLE "Вступление"
PERFORMER "Виктор Зинчук"
    INDEX 01 00:02:29
  TRACK 02 AUDIO
TITLE "Открой душу в радость"
PERFORMER "Виктор Зинчук"
    INDEX 01 00:52:47
  TRACK 03 AUDIO
TITLE "Горит свеча"
PERFORMER "Виктор Зинчук"
    INDEX 01 05:07:51
  TRACK 04 AUDIO
TITLE "Бумеранг"
PERFORMER "Виктор Зинчук"
    INDEX 01 10:45:05
  TRACK 05 AUDIO
TITLE "Заколдованный круг"
PERFORMER "Виктор Зинчук"
    INDEX 01 14:52:27
  TRACK 06 AUDIO
TITLE "Сад"
PERFORMER "Виктор Зинчук"
    INDEX 01 19:30:31
  TRACK 07 AUDIO
TITLE "Инструментал"
PERFORMER "Виктор Зинчук"
    INDEX 01 23:59:08
  TRACK 08 AUDIO
TITLE "Не бросай камнем"
PERFORMER "Виктор Зинчук"
    INDEX 01 29:02:25
  TRACK 09 AUDIO
TITLE "Старый органист"
PERFORMER "Виктор Зинчук"
    INDEX 01 34:00:72
  TRACK 10 AUDIO
TITLE "Инструментал"
PERFORMER "Виктор Зинчук"
    INDEX 01 37:50:58
  TRACK 11 AUDIO
TITLE "Мы все зависим друг от друга"
PERFORMER "О.Рожнова"
    INDEX 01 43:28:22

0


Вы здесь » Tutnet-fufla » Музыка разных жанров » Виктор Зинчук - 7 альбомов (1998-2011) Lossless