Tutnet-fufla

Объявление

Введите здесь ваше объявление.

Информация о пользователе

Привет, Гость! Войдите или зарегистрируйтесь.


Вы здесь » Tutnet-fufla » Шансон в форм. lossless » Влад Забелин - В законе, 2000 г.


Влад Забелин - В законе, 2000 г.

Сообщений 1 страница 2 из 2

1

Все благодарности - Николай Д. 
Спасибо .

Влад Забелин - В законе, 2000 г.

Влад Забелин - В законе, 2000 г.

Треклист:
1. Вор воруй
2. Мы сидели скромно
3. Воры в законе
4. Шурка Урка
5. Да он был там
6. С бодуна
7. Край таежный
8. Мама я вернусь
9. Мчи меня паровоз
10. Дядя Сеня

Audio: rip-CD
Format: FLAC
Format/Info: Free Lossless Audio Codec
Duration: 42mn 47s
Bit rate mode: Variable
Bit rate: 1 076 Kbps
Channel(s): 2 channels
Sampling rate: 44.1 KHz
Bit depth: 16 bits
Stream size: 329 MiB (100%)
Writing library: libFLAC 1.2.1
Производитель диска Студия "Звук"

CUE:

Код:
REM GENRE "Shanson"
REM DATE 2000
REM COMMENT "Рип tbc2005"
TITLE "В законе"
PERFORMER "Влад Забелин"
FILE "01. Track 01.flac" WAVE
  TRACK 01 AUDIO
TITLE "Вор воруй"
PERFORMER "Влад Забелин"
    INDEX 01 00:00:00
  TRACK 02 AUDIO
TITLE "Мы сидели скромно"
PERFORMER "Влад Забелин"
    INDEX 01 04:55:03
  TRACK 03 AUDIO
TITLE "Воры в законе"
PERFORMER "Влад Забелин"
    INDEX 01 08:09:34
  TRACK 04 AUDIO
TITLE "Шурка Урка"
PERFORMER "Влад Забелин"
    INDEX 01 12:27:08
  TRACK 05 AUDIO
TITLE "Да он был там"
PERFORMER "Влад Забелин"
    INDEX 01 15:46:05
  TRACK 06 AUDIO
TITLE "С бодуна"
PERFORMER "Влад Забелин"
    INDEX 01 20:47:34
  TRACK 07 AUDIO
TITLE "Край таежный"
PERFORMER "Влад Забелин"
    INDEX 01 24:33:45
  TRACK 08 AUDIO
TITLE "Мама, я вернусь"
PERFORMER "Влад Забелин"
    INDEX 01 29:54:51
  TRACK 09 AUDIO
TITLE "Мчи меня паровоз"
PERFORMER "Влад Забелин"
    INDEX 01 35:02:03
  TRACK 10 AUDIO
TITLE "Дядя Сеня"
PERFORMER "Влад Забелин"
    INDEX 01 39:40:74

Ссылка

https://yadi.sk/d/Vans8WeOgt9UQ

0

2

http://savepic.ru/12281904.jpg

0


Вы здесь » Tutnet-fufla » Шансон в форм. lossless » Влад Забелин - В законе, 2000 г.