Это интересно Скрыть

Tutnet-fufla

Объявление

Информация о пользователе

Привет, Гость! Войдите или зарегистрируйтесь.


Вы здесь » Tutnet-fufla » Североведы » Магаданцы,история создания ВИА+Мезенцев Анатолий


Магаданцы,история создания ВИА+Мезенцев Анатолий

Сообщений 1 страница 11 из 11

1

Здравствуйте парни Для особо умных поясню . что не помню где скачивал этот альбом
но напишиучел. слово Спасибо . за то.что счёл нужным поделиться с людьми
Не нужно устраивать говнотёрки не приведут они не к чему хорошему.
Хорошее в моём понимании это спор . а не оскорбления
Тяните и слушайте .... честно скажу качество неважное но интересно.

http://f16.ifotki.info/org/d11aa4d1b1814ecf0175fcefd4a5bbf05f1a13179265894.jpg

01  Вступление.mp3 (11.8 МБ)
02  Ещё до появления....mp3 (6.7 МБ)
03  И вот когда....mp3 (4.9 МБ)
04  Наконец-таки....mp3 (4.2 МБ)
05  В Магадан.mp3 (10.1 МБ)
06  Анатолий Иванович Мезенцев.mp3 (7.0 МБ)
07  Немного о Магадане.mp3 (16.8 МБ)
08  Магаданская история.mp3 (14.0 МБ)
09  Слава Аликульверт.mp3 (9.7 МБ)
10  Немного об исполнителях.mp3 (10.7 МБ)
11  Первая встреча.mp3 (10.3 МБ)
12  Интервью ТВ.mp3 (7.2 МБ)
13  О песнях.mp3 (7.2 МБ)
14  О музыкантах и слушателях.mp3 (7.6 МБ)
15  Возвращение.mp3 (5.1 МБ)
16  Воспоминание о записи Встречи.mp3 (3.3 МБ)
17  О составе Встречи.mp3 (12.8 МБ)
18  Магадан-Тихорецк.mp3 (11.7 МБ)
19  За Тихорецк.mp3 (9.3 МБ)
20  О творчестве.mp3 (10.3 МБ)
21  О натуре.mp3 (3.4 МБ)
22  О музыкальном почерке.mp3 (14.2 МБ)
23  Кода.mp3 (9.3 МБ)

http://yadi.sk/d/sviuylQvLnR3z

0

2

но напишиучел. слово Спасибо . за то.что счёл нужным поделиться с людьми

Андрею Анатоличу Хекало.Ник-ORCA

Его ORCA MUSIC CENTRE создали этот диск

0

3

Если кому интересно я выставлю вот эту запись.
Сразу скажу что запись чужая .И высказывать оскорбления в адрес человека который ей поделился тут
не кому не позволят ... тут не вт где оскорбляют реал. за их же труд и оц.

Если вдруг у кого то есть в лучшем качестве и он изъявит желание поделиться
Думаю люди не будут скупы на слова благодарности .......
И не нужно раскачивать тему и писать какой тут А.И х...й
я извинюсь перед реал.  .... За выставление без разрешения.

http://f16.ifotki.info/org/3e62c27e66a1a60d079fc6fb69d89ece5f1a13179268909.jpg

http://f16.ifotki.info/org/11467583bd51546e3702d3315bc00a045f1a13179268715.png
1

=Spoiler написал(а):

СD 1:
01. Люблю цыгана
02. Увяли розы
03. Колымская Гэс
04. Ваше благородие
05. Капитан Беринг
06. Мой друг уехал в Магадан
07. Поспели вишни
08. Избушка
09. Одинокая гармонь (интрументал)
10. Моя лапаточка
11. Связал нас чёрт с тобой
12. Бабье лето
13. Я не верю
14. Костя моряк
15. Красавица Одесса
16. Мясоедовская улица
17. Камнем грусть лежит на мне
18. Ах Одесса
19. Чебурелла
20. Журавли (Здесь под небом...)

CD 2:
01. Ямщик не гони лошадей
02. Как-то по проспекту
03. Что-то сигарета гаснет
04. Письмо к матери
05. Глухари
06. Посёлок
07. На днях (инструментал)
08. Танго (инструментал)
09. Моряк крепче вяжи узлы
10. Салажата
11. Корабли постоят
12. Трансколымская трасса
13. Москва-Одесса
14. Дорогая пропажа
15. Прощальное письмо
16. Костёр давно погас
17. На последнюю пятёрочку
18. Пой мой друг
19. Москва златоглавая
20. Поппури (инструментал)
21. Западный хит

http://yadi.sk/d/3koMcOrlLndhz

0

4

Хэллуин Красавец вы наш ненаглядный Без Вашего присутствия становится просто скучно .
Да я скажу Андрею Спасибо и  извинюсь как только он
сочтёт нужным зайти и скать что это его оц
думаю не только я один... Ещё есть вопросы по теме ??????

............................................................................................

Exact Audio Copy V0.99 prebeta 4 from 23. January 2008

Отчёт EAC об извлечении, выполненном 16. января 2009, 21:26

Магаданцы и анс. Парус / Концерт 1973 г.

Дисковод: HL-DT-STDVDRAM GSA-4167B   Adapter: 1  ID: 1

Режим чтения                 : Достоверность
Использование точного потока : Да
Отключение кэша аудио        : Да
Использование указателей C2  : Нет

Коррекция смещения при чтении                     : 667
Способность читать области Lead-in и Lead-out     : Нет
Заполнение пропущенных сэмплов тишиной            : Да
Удаление блоков с тишиной в начале и конце        : Нет
При вычислениях CRC использовались нулевые сэмплы : Да
Интерфейс                                         : Встроенный Win32-интерфейс для Win NT/2000

Выходной формат : Внутренние WAV-операции
Формат сэмплов  : 44.100 Гц; 16 бит; стерео

TOC извлечённого CD

     Трек |   Старт  | Длительность | Начальный сектор | Конечный сектор
    ---------------------------------------------------------------------
       1  |  0:00.00 |    4:49.45   |           0      |      21719     
       2  |  4:49.45 |    1:49.35   |       21720      |      29929     
       3  |  6:39.05 |    2:42.01   |       29930      |      42080     
       4  |  9:21.06 |    4:19.11   |       42081      |      61516     
       5  | 13:40.17 |    2:06.36   |       61517      |      71002     
       6  | 15:46.53 |    2:10.20   |       71003      |      80772     
       7  | 17:56.73 |    3:02.26   |       80773      |      94448     
       8  | 20:59.24 |    3:12.52   |       94449      |     108900     
       9  | 24:12.01 |    2:09.35   |      108901      |     118610     
      10  | 26:21.36 |    1:45.68   |      118611      |     126553     
      11  | 28:07.29 |    2:21.13   |      126554      |     137141     
      12  | 30:28.42 |    2:19.11   |      137142      |     147577     
      13  | 32:47.53 |    2:32.10   |      147578      |     158987     
      14  | 35:19.63 |    3:46.14   |      158988      |     175951     
      15  | 39:06.02 |    3:40.56   |      175952      |     192507     
      16  | 42:46.58 |    2:33.14   |      192508      |     203996     
      17  | 45:19.72 |    2:19.50   |      203997      |     214471     
      18  | 47:39.47 |    3:46.15   |      214472      |     231436     
      19  | 51:25.62 |    2:14.51   |      231437      |     241537     
      20  | 53:40.38 |    6:24.40   |      241538      |     270377     
      21  | 60:05.03 |    2:13.60   |      270378      |     280412     

Характеристики диапазона извлечения и сообщения об ошибках

Выбранный диапазон

     Имя файла C:\Documents and Settings\Vladimir\Рабочий стол\Магаданцы и анс. Парус 1973 (2CD)\Магаданцы и анс. Парус - Концерт 1973 г..wav

     Пиковый уровень 100.0 %
     Качество диапазона 100.0 %
     CRC копии 6FB4868C
     Копирование... OK

Ошибок не произошло

Конец отчёта
......................................................................................

Exact Audio Copy V0.99 prebeta 4 from 23. January 2008

Отчёт EAC об извлечении, выполненном 16. января 2009, 20:04

Магаданцы и анс. Парус  / Концерт 1973 г.

Дисковод: HL-DT-STDVDRAM GSA-4167B   Adapter: 1  ID: 1

Режим чтения                 : Достоверность
Использование точного потока : Да
Отключение кэша аудио        : Да
Использование указателей C2  : Нет

Коррекция смещения при чтении                     : 667
Способность читать области Lead-in и Lead-out     : Нет
Заполнение пропущенных сэмплов тишиной            : Да
Удаление блоков с тишиной в начале и конце        : Нет
При вычислениях CRC использовались нулевые сэмплы : Да
Интерфейс                                         : Встроенный Win32-интерфейс для Win NT/2000

Выходной формат : Внутренние WAV-операции
Формат сэмплов  : 44.100 Гц; 16 бит; стерео

TOC извлечённого CD

     Трек |   Старт  | Длительность | Начальный сектор | Конечный сектор
    ---------------------------------------------------------------------
       1  |  0:00.00 |    2:36.55   |           0      |      11754     
       2  |  2:36.55 |    3:11.06   |       11755      |      26085     
       3  |  5:47.61 |    2:47.55   |       26086      |      38665     
       4  |  8:35.41 |    2:08.58   |       38666      |      48323     
       5  | 10:44.24 |    2:14.14   |       48324      |      58387     
       6  | 12:58.38 |    2:03.64   |       58388      |      67676     
       7  | 15:02.27 |    2:02.32   |       67677      |      76858     
       8  | 17:04.59 |    3:03.54   |       76859      |      90637     
       9  | 20:08.38 |    3:45.11   |       90638      |     107523     
      10  | 23:53.49 |    2:17.50   |      107524      |     117848     
      11  | 26:11.24 |    1:49.62   |      117849      |     126085     
      12  | 28:01.11 |    2:12.72   |      126086      |     136057     
      13  | 30:14.08 |    3:11.60   |      136058      |     150442     
      14  | 33:25.68 |    2:38.56   |      150443      |     162348     
      15  | 36:04.49 |    4:29.62   |      162349      |     182585     
      16  | 40:34.36 |    2:51.36   |      182586      |     195446     
      17  | 43:25.72 |    2:55.04   |      195447      |     208575     
      18  | 46:21.01 |    1:56.59   |      208576      |     217334     
      19  | 48:17.60 |    2:35.48   |      217335      |     229007     
      20  | 50:53.33 |    3:23.35   |      229008      |     244267     

Характеристики диапазона извлечения и сообщения об ошибках

Выбранный диапазон

     Имя файла C:\Documents and Settings\Vladimir\Рабочий стол\Магаданцы и анс. Парус 1973 (1CD)\Магаданцы и анс. Парус  - Концерт 1973 г..wav

     Пиковый уровень 100.0 %
     Качество диапазона 99.9 %
     CRC копии 24C52297
     Копирование... OK

Ошибок не произошло

Конец отчёта

0

5

Господин Хэллуин Ввиду того как я понимаю вы большой знаток кач. муз.
Может и вот этим строкам найдёте объяснение ??????
И дайте мне пож. объективный ответ Что значить украл ??????
и как приватные альбомы попадали в сеть на ряд муз. форумов.

Не напрягайте свой мозг Я Вам отвечу ... Укоал - это значить поимел личную выгоду.
именно себе . Какую выгоду укравший поимел .если он поделился записью ????????

http://rutracker.org/forum/viewtopic.php?t=2918038
..................................................................

Сопроводительный комментарий к релизу.
Смотрим и читаем внимательно!

Релиз Магаданцы с анс. Парус 1973 на двух дисках
в лосслесс действительно был залит по просьбе Владимира (vlf)
в закрытый раздел форума. Из привата релиз был
украден бывшим участником команды ale2187,
после чего он из-за своих амбиций расшарил его на торренте.

Какой качалкой брал ale2187 релиз мне не известно.
Никогда с вором я не производил никаких обменов на его рипы.

Концерт оцифрован и записан на диски моим одноклассником
и известным ленинградским коллекционером шансона Игорем Андреевым.
Я получил от него Магаданцев, проживая в Израиле.
В сети гулял рип с моих дисков в мп3 320.
На вт в закрытый раздел релиз без потери качества
был выложен впервые и украден. По правилам нашего сообщества
альбомы в клубе только для единомышленников.
Вынос и распространение запрещены.
ale2187-согласившийся
с нашими законами и принятый в коллектив,
как порядочный человек, оказался на самом деле низким вором
и последним негодяем.

................................................
Господин Хэллуин  Это тоже Вам ....

http://russhanson.ru/forum/viewtopic.ph … mp;t=32450

А теперь ответьте кому я должен написать слова благодарности ????
Вы ведь умный и грамотно пишите .
Мне лично глубоко по шиколотку кто и у кого спиз...л
Пусть люди качают и слушают .....
При Вашем желании если таково появиться п познакомлю Вас с одним любителем трекера
который пиздит кигами ... и всё ровно ... все бояться сказать ему пару слов.
И не нужно тут превращать тему в разборки ..... Будет орег. реал. Будет разговор .
Нет до свидания .......

И не путайте х..й с трамвайной ручкой .. Орег. реал. то. кто сидел и цифровал запись
кто купил или обменялся ей . а не тот кто выставил в сеть со скринами и логами.
Надеюсь это понятно ?????? от безграмотного А.И ....................

0

6

Господин Хэллуин Я немного напишу флуда чтоб Вам было ясно.
Что такое Приват. Если я обращусь с просьбой о покупке Хадыжинке или Олимп.
(хотя мозгами понимаю что этими словами оскорбляю ув. людей)

А Вы сможите его тут спиз..ь Я Вам памятник поставлю у вашего дома .
с красивой надписью....... поверьте.... (не советую сомневаться)
Могу рассказать как и для чего создавался приват на вт и по чьей иниц. ??????
Могу рассказать как устраиваются говнотёрки на муз. ресурсах.
Уясните своей бошкой умной. Приват принадлежит только одному человеку
за котороый он перед людьми несёт отв. Перед теми людьми которые ему поверили и дали
в этот приват альбомы. Распоряжаться он может только При общем голосовании ....
Это понятно Вам ???????  Вам показать приват вт ????? где Админ. муз. группы который столько кричит про
этот приват туда не вложил не цента и нет там не одного его купленого
или оц. альбома . Я думаю что мои слова дошли до вашего разума .............. Спорить ??? я готов но не
ругаться и многие это поняли . Если я не понимаю то . спрошу у людей а не вяжу им своё мнение
Будьте здоровы и не болейте слякоть на улице

а это вам так для размышления про воровство...............
содержание торента

http://www.torrentino.com/torrents/1212692

0

7

Не путаю я х..й с трамвайной ручкой ..и во тьмах не спутаю. Простто указал на ту програму записал и выпустеил диск А.Хекало.Кто где у ково спиздел и расшарил мне их приваты по барберу по барабану. З памятник с красивой надписю конешно спасибо, но те концерты отжать непо моим зубам. Вопросов больше нет. Вам тоже нехворать,не простывать.

0

8

Хэллуин  Да Вы не огорчайтесь так сильно ... Здесь самый дружелюбный народ собирается .
и воспитанный . По этой причине я скажу Вам что лучше правду в глаза чем красивую ложь.
Может я и груб был ... ну что поделать .... Вы поднимите правую руку в верх и со словами
ну и х..й с тобой ... резко опустите .... я не огорчусь ... Знаете почему ??????
слишком много меня оскорбляли за глаза....

0

9

Нет парни я не украл данный ревлиз
а приватизировал у спившигося негодяя с вт который
называет себя Админ. муз. груп. ДМИТРИЙ - СРУЛЬ
он банит и оскорбляет польз. проваципуя на оскорбления и мат.... .
Он никогда не был Админ. ВТ это спившийся самозванец.....
дорвавшийся до власти...
Этого негодяя гонят со всех муз. ресурсов.
Это не оговор - это правда.

Здравствуйте парни нет я не хочу говнотёрок .
Пусть спившийся придурок пояснит вот это .....
Боря и тебенапишу пару слов . Ты прогнуля под негодяя и
поверь .что мои слова многие бы подтвердили.
Ну не как неожидал от тебя подобного........ Извини ну я прав.

(24/96) анс.МАГАДАНЦЫ - 1973 год (не полный концерт)

оцифровка с катушки

Треклист:

01 анс. Магаданцы - Люблю цыгана Яна
02 анс. Магаданцы - Увяли розы
03 анс. Магаданцы - Калымская ГЭС
04 анс. Магаданцы - Ваше благородие
05 анс. Магаданцы - Капитан Беринг
06 анс. Магаданцы - Поспели вишни
07 анс. Магаданцы - Избушка
08 анс. Магаданцы - Моя лопаточка
09 анс. Магаданцы - Я не верю
10 анс. Магаданцы - Шаланды полные кефали
11 анс. Магаданцы - Красавица Одесса
12 анс. Магаданцы - Мясоедовская
13 анс. Магаданцы - Камнем грусть лежит на мне
14 анс. Магаданцы - Ах, Одесса!
15 анс. Магаданцы - Я Парамела, я Чебурела - барон цыганский я!
16 анс. Магаданцы - Здесь под небом чужим (Журавли)
17 анс. Магаданцы - Ямщик, не гони лошадей
18 анс. Магаданцы - Как-то по проспекту...
19 анс. Магаданцы - Что-то сигарета гаснет
20 анс. Магаданцы - Письмо к матери
21 анс. Магаданцы - Глухари
22 анс. Магаданцы - Говорю Вам по честному...(Посёлок Черский)
23 анс. Магаданцы - Инструментал

CUE:

Код:
REM GENRE "Советская Эстрада"
REM DATE 1973
REM COMMENT "Оцифровка - Борис 63"
TITLE "Магнитоальбом"
PERFORMER "анс. Магаданцы"
FILE "1 ст.flac" WAVE
  TRACK 01 AUDIO
TITLE "Люблю цыгана Яна"
PERFORMER "анс. Магаданцы"
    INDEX 01 00:04:34
  TRACK 02 AUDIO
TITLE "Увяли розы"
PERFORMER "анс. Магаданцы"
    INDEX 01 02:34:09
  TRACK 03 AUDIO
TITLE "Калымская ГЭС"
PERFORMER "анс. Магаданцы"
    INDEX 01 05:38:34
  TRACK 04 AUDIO
TITLE "Ваше благородие"
PERFORMER "анс. Магаданцы"
    INDEX 01 08:19:02
  TRACK 05 AUDIO
TITLE "Капитан Беринг"
PERFORMER "анс. Магаданцы"
    INDEX 01 10:21:10
  TRACK 06 AUDIO
TITLE "Поспели вишни"
PERFORMER "анс. Магаданцы"
    INDEX 01 12:28:08
  TRACK 07 AUDIO
TITLE "Избушка"
PERFORMER "анс. Магаданцы"
    INDEX 01 14:23:09
FILE "2 ст.flac" WAVE
  TRACK 08 AUDIO
TITLE "Моя лопаточка"
PERFORMER "анс. Магаданцы"
    INDEX 01 00:02:54
  TRACK 09 AUDIO
TITLE "Я не верю"
PERFORMER "анс. Магаданцы"
    INDEX 01 03:56:53
  TRACK 10 AUDIO
TITLE "Шаланды полные кефали"
PERFORMER "анс. Магаданцы"
    INDEX 01 06:57:37
  TRACK 11 AUDIO
TITLE "Красавица Одесса"
PERFORMER "анс. Магаданцы"
    INDEX 01 09:27:21
  TRACK 12 AUDIO
TITLE "Мясоедовская"
PERFORMER "анс. Магаданцы"
    INDEX 01 13:41:66
  TRACK 13 AUDIO
TITLE "Камнем грусть лежит на мне"
PERFORMER "анс. Магаданцы"
    INDEX 01 16:24:72
  TRACK 14 AUDIO
TITLE "Ах, Одесса!"
PERFORMER "анс. Магаданцы"
    INDEX 01 19:13:07
  TRACK 15 AUDIO
TITLE "Я парамелла, я чебурела - барон цыганский я!"
PERFORMER "анс. Магаданцы"
    INDEX 01 21:06:15
  TRACK 16 AUDIO
TITLE "Здесь под небом чужим (Журавли)"
PERFORMER "анс. Магаданцы"
    INDEX 01 23:33:20
  TRACK 17 AUDIO
TITLE "Ямщик, не гони лошадей"
PERFORMER "анс. Магаданцы"
    INDEX 01 26:47:09
  TRACK 18 AUDIO
TITLE "Как-то по проспекту..."
PERFORMER "анс. Магаданцы"
    INDEX 01 31:20:21
  TRACK 19 AUDIO
TITLE "Что-то сигарета гаснет"
PERFORMER "анс. Магаданцы"
    INDEX 01 33:04:49
  TRACK 20 AUDIO
TITLE "Письмо к матери"
PERFORMER "анс. Магаданцы"
    INDEX 01 35:38:48
  TRACK 21 AUDIO
TITLE "Глухари"
PERFORMER "анс. Магаданцы"
    INDEX 01 39:43:66
  TRACK 22 AUDIO
TITLE "Говорю Вам по честному...(Посёлок Черский)"
PERFORMER "анс. Магаданцы"
    INDEX 01 41:43:40
  TRACK 23 AUDIO
TITLE "Инструментал"
PERFORMER "анс. Магаданцы"
    INDEX 01 43:47:12

https://yadi.sk/mail/?hash=eX7JVme17+8/Re1kM4SQVyMy0CDy680aEaazIqGjRac=

https://yadi.sk/mail/?hash=H5Tzw+1Gq+TYJQB0uGxNINiN6sF7XMF3fRGEbLJgJ1k=

0

10

Претензий нет. Благодарю за выставленный релиз. С уважением, Андрей Хекало

0

11

ORCA Гость Спасибо Вам.

0


Вы здесь » Tutnet-fufla » Североведы » Магаданцы,история создания ВИА+Мезенцев Анатолий