Tutnet-fufla

Объявление

Введите здесь ваше объявление.

Информация о пользователе

Привет, Гость! Войдите или зарегистрируйтесь.


Вы здесь » Tutnet-fufla » Шансон в форм. lossless » (24/96) Саша Шамин (MD) (lossless)


(24/96) Саша Шамин (MD) (lossless)

Сообщений 1 страница 7 из 7

1

Данная запись приватизирована у Спившигося негодяя с вт димуле .
Все благодарности - Борис 63 Спасибо Боря Яне знаю что там у этого придурка в привате и знать не хочу эта оц. мне понравилась
.

(24/96) Саша Шамин (MD) (lossless)

Оцифровка с минидиска

Этот диск был записан по просьбе одного товарища,который так его и не забрал.

Было получено ценное указание - поработать аналоговым шумодавом,что я и сделал - шумы подобраны - оценивать запись вам.

Трелист:

01 Саша Шамин - Окончен процесс
02 Саша Шамин - Здравствуй, мама
03 Саша Шамин - Дочь рыбака
04 Саша Шамин - Искры камина
05 Саша Шамин - Сонькины именины
06 Саша Шамин - По тундре
07 Саша Шамин - Журавли улетели
08 Саша Шамин - Взял гитару
09 Саша Шамин - Расскажу про тот край
10 Саша Шамин - А на дворе хорошая погода
11 Саша Шамин - Приморили гады
12 Саша Шамин - Здравствуй добрая, милая, мать!
13 Саша Шамин - Прошлого грёзы
14 Саша Шамин - Каким меня ты ядом напоила
15 Саша Шамин - Где-то соловушка пел

ссылка

Скрытый текст:

Для просмотра скрытого текста - войдите или зарегистрируйтесь.

0

2

Алексадр Иваныч чет со ссылью не то. Или я чтото не так делаю Х.З.

0

3

Сообщение для SaAURSib Тёзка это ссылка Бориса я взял без разрешения щас попробуй должно всё нормально быть

0

4

Все пошло Спасибо

0

5

0

6

Дмитрий 
Music Group

Про обработку шумодавом в релизе указано.

(24/96) Саша Шамин (MD) (lossless)
Сам ATRAC - далекоооо не lossless (без потерь), т.к присутствует компрессия.
но лучше mp3 однозначно.

................................................

REM GENRE "Shanson"
REM DATE 1970-е
REM COMMENT "Оцифровка - Борис 63"
TITLE "Магнитоальбом"
PERFORMER "Саша Шамин"
FILE "Шамин .flac" WAVE
  TRACK 01 AUDIO
TITLE "Окончен процесс"
PERFORMER "Саша Шамин"
    INDEX 01 00:04:28
  TRACK 02 AUDIO
TITLE "Здравствуй, мама "
PERFORMER "Саша Шамин"
    INDEX 01 03:22:64
  TRACK 03 AUDIO
TITLE "Дочь рыбака"
PERFORMER "Саша Шамин"
    INDEX 01 06:20:59
  TRACK 04 AUDIO
TITLE "Искры камина"
PERFORMER "Саша Шамин"
    INDEX 01 10:02:11
  TRACK 05 AUDIO
TITLE "Сонькины именины"
PERFORMER "Саша Шамин"
    INDEX 01 13:54:29
  TRACK 06 AUDIO
TITLE "По тундре "
PERFORMER "Саша Шамин"
    INDEX 01 15:30:27
  TRACK 07 AUDIO
TITLE "Журавли улетели"
PERFORMER "Саша Шамин"
    INDEX 01 17:46:22
  TRACK 08 AUDIO
TITLE "Взял гитару"
PERFORMER "Саша Шамин"
    INDEX 01 22:23:61
  TRACK 09 AUDIO
TITLE "Расскажу про тот край"
PERFORMER "Саша Шамин"
    INDEX 01 25:33:52
  TRACK 10 AUDIO
TITLE "А на дворе хорошая погода "
PERFORMER "Саша Шамин"
    INDEX 01 29:48:19
  TRACK 11 AUDIO
TITLE "Приморили гады"
PERFORMER "Саша Шамин"
    INDEX 01 32:05:74
  TRACK 12 AUDIO
TITLE "Здравствуй добрая, милая, мать!"
PERFORMER "Саша Шамин"
    INDEX 01 35:01:45
  TRACK 13 AUDIO
TITLE "Прошлого грёзы "
PERFORMER "Саша Шамин"
    INDEX 01 38:56:63
  TRACK 14 AUDIO
TITLE "Каким меня ты ядом напоила"
PERFORMER "Саша Шамин"
    INDEX 01 41:06:55
  TRACK 15 AUDIO
TITLE " Где-то соловушка пел "
PERFORMER "Саша Шамин"
    INDEX 01 44:11:70

0

7

это франмент клубной записи в lossless
говорит сруль саломонович она только на продажу

http://se.uploads.ru/t/pQ8A7.jpg

Ни в какое сравнение он с Атраком не идет, ни компрессии, ни резкого среза не наблюдается

0


Вы здесь » Tutnet-fufla » Шансон в форм. lossless » (24/96) Саша Шамин (MD) (lossless)