Это интересно Скрыть

Tutnet-fufla

Информация о пользователе

Привет, Гость! Войдите или зарегистрируйтесь.


Вы здесь » Tutnet-fufla » Сборники шансон mp3 . Lossless » (24/96) Бен Бенцианов (катушка)


(24/96) Бен Бенцианов (катушка)

Сообщений 1 страница 2 из 2

1

(24/96) Бен Бенцианов (катушка)


Оцифровка с катушки Бориса 63
Спасибо Боря

Записано с аппарата - на фото

http://i71.fastpic.ru/big/2015/1009/e6/cccac27157d6de1a34ca00df69f55de6.jpg

Треклист:

01. На 22 часа пошёл в кино
02. Пусь прозвучит мотив сейчас
03. Ой Вань, сбежать не вздумай из дому...
04. Письмо в журнал Здоровье
05. Говорят в былые годы...
06. Книжный бум
07. Малиновки заслыша голосок...
08. Кто есть кто
09. Хороши вечера на Оби
10. Кожаный синдром
11. Я вчера пришёл на рынок...
12. Живёт студентка Марья в высоком терему
13. Эту песню каждый узнаёт...
14. Шёл хулиган, пугая весь район...
15. К врачу я как-то за советом забежал
16. Я куплеты написал, заменив имена
17. Ой не везёт...
18. Расскажу вам быль, что со мной произошла...
19. Так у нас в народе говорят...
20. Только раз в году...
21. Каждый день приносит нам песни новые...
22. Я свой голос настрою на лирический лад
23. Где взять весёлые куплеты?
24. Про Ленинград
25. Когда я выхожу на сцену...
26. Не мало птиц воспето в песнях...
27. Интро
28. А я чё, да я не чё
29. Три эпохи или извините за опоздания
30. Песня о зубе
31. Сюда приехал отдыхать я по госстраховской путёвке...

CUE:

Код:
REM GENRE "Shanson"
REM COMMENT "Оцифровка - Борис 63"
TITLE "Магнитоальбом"
PERFORMER "Бен Бенцианов"
FILE "Бенцианов 1.flac" WAVE
  TRACK 01 AUDIO
TITLE "На 22 часа пошёл в кино"
PERFORMER "Бен Бенцианов"
    INDEX 01 00:01:46
  TRACK 02 AUDIO
TITLE "Пусь прозвучит мотив сейчас"
PERFORMER "Бен Бенцианов"
    INDEX 01 03:08:54
  TRACK 03 AUDIO
TITLE "Ой Вань, сбежать не вздумай из дому..."
PERFORMER "Бен Бенцианов"
    INDEX 01 06:13:26
  TRACK 04 AUDIO
TITLE "Письмо в журнал Здоровье"
PERFORMER "Бен Бенцианов"
    INDEX 01 10:07:21
  TRACK 05 AUDIO
TITLE "Говорят в былые годы..."
PERFORMER "Бен Бенцианов"
    INDEX 01 12:38:08
  TRACK 06 AUDIO
TITLE "Книжный бум"
PERFORMER "Бен Бенцианов"
    INDEX 01 15:31:58
  TRACK 07 AUDIO
TITLE "Малиновки заслыша голосок..."
PERFORMER "Бен Бенцианов"
    INDEX 01 18:07:61
  TRACK 08 AUDIO
TITLE "Кто есть кто"
PERFORMER "Бен Бенцианов"
    INDEX 01 21:08:06
  TRACK 09 AUDIO
TITLE "Хороши вечера на Оби"
PERFORMER "Бен Бенцианов"
    INDEX 01 24:42:36
  TRACK 10 AUDIO
TITLE "Кожаный синдром"
PERFORMER "Бен Бенцианов"
    INDEX 01 27:26:59
  TRACK 11 AUDIO
TITLE "Я вчера пришёл на рынок..."
PERFORMER "Бен Бенцианов"
    INDEX 01 29:41:14
  TRACK 12 AUDIO
TITLE "Живёт студентка Марья в высоком терему"
PERFORMER "Бен Бенцианов"
    INDEX 01 32:00:23
  TRACK 13 AUDIO
TITLE "Эту песню каждый узнаёт..."
PERFORMER "Бен Бенцианов"
    INDEX 01 34:18:00
  TRACK 14 AUDIO
TITLE "Шёл хулиган, пугая весь район..."
PERFORMER "Бен Бенцианов"
    INDEX 01 37:05:41
  TRACK 15 AUDIO
TITLE "К врачу я как-то за советом забежал"
PERFORMER "Бен Бенцианов"
    INDEX 01 38:58:66
  TRACK 16 AUDIO
TITLE "Я куплеты написал, заменив имена"
PERFORMER "Бен Бенцианов"
    INDEX 01 40:52:42
FILE "Бенцианов 2.flac" WAVE
  TRACK 17 AUDIO
TITLE "Ой не везёт..."
PERFORMER "Бен Бенцианов"
    INDEX 01 00:01:47
  TRACK 18 AUDIO
TITLE "Расскажу вам быль, что со мной произошла..."
PERFORMER "Бен Бенцианов"
    INDEX 01 03:20:25
  TRACK 19 AUDIO
TITLE "Так у нас в народе говорят..."
PERFORMER "Бен Бенцианов"
    INDEX 01 05:47:61
  TRACK 20 AUDIO
TITLE "Только раз в году..."
PERFORMER "Бен Бенцианов"
    INDEX 01 07:01:26
  TRACK 21 AUDIO
TITLE "Каждый день приносит нам песни новые..."
PERFORMER "Бен Бенцианов"
    INDEX 01 09:55:58
  TRACK 22 AUDIO
TITLE "Я свой голос настрою на лирический лад"
PERFORMER "Бен Бенцианов"
    INDEX 01 12:57:41
  TRACK 23 AUDIO
TITLE "Где взять весёлые куплеты?"
PERFORMER "Бен Бенцианов"
    INDEX 01 16:06:66
  TRACK 24 AUDIO
TITLE "Про Ленинград"
PERFORMER "Бен Бенцианов"
    INDEX 01 18:15:39
  TRACK 25 AUDIO
TITLE "Когда я выхожу на сцену..."
PERFORMER "Бен Бенцианов"
    INDEX 01 21:05:73
  TRACK 26 AUDIO
TITLE "Не мало птиц воспето в песнях..."
PERFORMER "Бен Бенцианов"
    INDEX 01 29:00:73
  TRACK 27 AUDIO
TITLE "Интро"
PERFORMER "Бен Бенцианов"
    INDEX 01 32:49:36
  TRACK 28 AUDIO
TITLE "А я чё, да я не чё"
PERFORMER "Бен Бенцианов"
    INDEX 01 34:38:00
  TRACK 29 AUDIO
TITLE "Три эпохи или извините за опоздания"
PERFORMER "Бен Бенцианов"
    INDEX 01 37:51:42
  TRACK 30 AUDIO
TITLE "Песня о зубе"
PERFORMER "Бен Бенцианов"
    INDEX 01 40:04:53
  TRACK 31 AUDIO
TITLE "Сюда приехал отдыхать я по госстраховской путёвке..."
PERFORMER "Бен Бенцианов"
    INDEX 01 42:01:37
   
   

Скачать FLAC+CUE:

https://yadi.sk/mail/?hash=XTZMCW7fjoFZk0MGA1aA1P99ltbqDd5mbk6K0DtXsNI=

================================================== ====

1 ст
https://yadi.sk/mail/?hash=jYcxRXZOaGCfcE7CbZoujq1DsY1sEqvv4wZfySDMah4=

2 ст
https://yadi.sk/mail/?hash=EmoidnSkD3blKAIpUpAuDwi8LvnekV98ub4eGe5XFxk=

__________________

0

2

Это лучшее кач в сети инт как говорит митя сруль .. Он себя называет Админ. муз. груп.вт
Описывать что это за му..к я не стану Вы поймёте скачав запись .

0


Вы здесь » Tutnet-fufla » Сборники шансон mp3 . Lossless » (24/96) Бен Бенцианов (катушка)