Tutnet-fufla

Объявление

Введите здесь ваше объявление.

Информация о пользователе

Привет, Гость! Войдите или зарегистрируйтесь.


Вы здесь » Tutnet-fufla » Сборники шансон mp3 . Lossless » (24/96) Блатные песни (lossless)


(24/96) Блатные песни (lossless)

Сообщений 1 страница 2 из 2

1

(24/96) Блатные песни (lossless)

http://i57.fastpic.ru/thumb/2015/1016/8d/310926048da64cc054a98b332a6de18d.jpeg

Оцифровка  Бориса 63
подача сигнала - дека akai gx 75 mkII

Треклист:

01 Аркадий Северный - Три китайца красят яйца
02 Михаил Звездинский - Сгорая плачут свечи
03 Владимир Асмолов - Тихий Дон
04 Анатолий Могилевский - Одесса-мама
05 Аркадий Северный - Черная моль
06 Владимир Асмолов - Две разницы
07 Михаил Звездинский - Очарована-околдована
08 Анатолий Могилевский - Гоп-стоп, бабушка здорова!
09 Аркадий Северный - На Дерибасовской открылася пивная
10 Михаил Звездинский - Поручик Голицын
11 Владимир Асмолов - Шалава
12 Анатолий Могилевский - У нас в Одессе это не едят!

1 сторона

https://yadi.sk/mail/?hash=t5ufm4yucjZNWW5XOSLgwVb7Kitx5S6yun4Ar6XMfY4=&uid=193190115

2 сторона

https://yadi.sk/mail/?hash=EjrGilcFeNhEGYnIFDup+x8UD4OHACJjLI2Lp3FaMQY=&uid=193190115

cue

Код:
REM GENRE "Shanson"
REM COMMENT "Оцифровка - Борис 63"
TITLE "Блатные песни"
PERFORMER "Сборник"
FILE "1 ст .flac" WAVE
  TRACK 01 AUDIO
TITLE "Три китайца красят яйца"
PERFORMER "Аркадий Северный"
    INDEX 01 00:00:00
  TRACK 02 AUDIO
TITLE "Сгорая плачут свечи"
PERFORMER "Михаил Звездинский"
    INDEX 01 05:38:54
  TRACK 03 AUDIO
TITLE "Тихий Дон"
PERFORMER "Владимир Асмолов"
    INDEX 01 09:57:68
  TRACK 04 AUDIO
TITLE "Одесса-мама"
PERFORMER "Анатолий Могилевский"
    INDEX 01 13:30:31
  TRACK 05 AUDIO
TITLE "Черная моль"
PERFORMER "Аркадий Северный"
    INDEX 01 16:30:04
  TRACK 06 AUDIO
TITLE "Две разницы"
PERFORMER "Владимир Асмолов"
    INDEX 01 21:27:35
FILE "2 ст .flac" WAVE
  TRACK 07 AUDIO
TITLE "Очарована-околдована"
PERFORMER "Михаил Звездинский"
    INDEX 01 00:00:00
  TRACK 08 AUDIO
TITLE "Гоп-стоп, бабушка здорова!"
PERFORMER "Анатолий Могилевский"
    INDEX 01 06:22:67
  TRACK 09 AUDIO
TITLE "На Дерибасовской открылася пивная"
PERFORMER "Аркадий Северный"
    INDEX 01 10:59:28
  TRACK 10 AUDIO
TITLE "Поручик Голицын"
PERFORMER "Михаил Звездинский"
    INDEX 01 15:14:38
  TRACK 11 AUDIO
TITLE "Шалава"
PERFORMER "Владимир Асмолов"
    INDEX 01 18:54:16
  TRACK 12 AUDIO
TITLE "У нас в Одессе это не едят!"
PERFORMER "Анатолий Могилевский"
    INDEX 01 21:57:62

0

2

Вот куй от мите..... после оц.   кассета ушла в помойку

https://yadi.sk/d/G0Zfdq9kjaeBy

0


Вы здесь » Tutnet-fufla » Сборники шансон mp3 . Lossless » (24/96) Блатные песни (lossless)