Tutnet-fufla

Объявление

Введите здесь ваше объявление.

Информация о пользователе

Привет, Гость! Войдите или зарегистрируйтесь.


Вы здесь » Tutnet-fufla » Шансон альбомы в mp3 » ВИА «Одесситы»


ВИА «Одесситы»

Сообщений 1 страница 7 из 7

1

Исполнитель - ВИА «Одесситы»
Альбом - Лимончики 1981
Ормат мп3
Качество .................

01 - Ах, Одесса
02 - Увяли розы
03 - Город уши заткнул
04 - Батальонный разведчик
05 - Я Одессит
06 - Манька
07 - Мясоедовская улица моя
08 - Когда с тобой мы встретились
09 - Журавли
10 - Лимончики
11 - Месяц голубой
12 - У тебя глаза..
13 - Куплеты
14 - Денежки
15 - Это было летом
16 - Сонечка

https://yadi.sk/d/CBoUXSBTk5Uas

http://i57.fastpic.ru/big/2015/1028/3a/3252c70ab79acd8eef9ec69a5f56ee3a.jpg

0

2

Все благодарности Админу ВТ Владимиру - Tomas 
Ушедшему по болезни из жизни .

Исполнитель ВИА Одесситы
Альбом Лимончики 1981
Жанр Шансон

Содержание
01. Ах, Одесса
02. Увяли розы
03. Город уши заткнул
04. Батальонный разведчик
05. Я одессит
06. Манька
07. Мясоедовская улица моя
08. Когда с тобой мы встретились
09. Журавли
10. Лимончики
11. Месяц голубой
12. У тебя глаза
13. Куплеты
14. Денежки
15. Это было летом
16. Сонечка

Добавлена опция для восстановления 3%
EAC, APE, CUE, LOG, Covers
Сканы в архиве
Рип с аудиокассеты

0

3

AUDIOCHECKER v2.0 beta (build 457) - by Dester - opdester@freemail.hu
~~~~~~~~~~~~~~~~~~~~~~~~~~~~~~~~~~
-=== НЕ РЕДАКТИРУЙТЕ ЭТОТ ФАЙЛ! ===-

Путь: ...\ВИА Одесситы - Лимончики 1981

1 -=- ВИА  Одесситы  - Лимончики.wav -=- MPEG (95%)

180046052

.................................................

Exact Audio Copy V0.99 prebeta 5 from 4. May 2009

Отчёт EAC об извлечении, выполненном 16. марта 2010, 21:17

ВИА "Одесситы" / Лимончики

Дисковод: TSSTcorpCDDVDW SH-S223F   Adapter: 5  ID: 0

Режим чтения                 : Достоверность
Использование точного потока : Да
Отключение кэша аудио        : Да
Использование указателей C2  : Нет

Коррекция смещения при чтении                     : 6
Способность читать области Lead-in и Lead-out     : Нет
Заполнение пропущенных сэмплов тишиной            : Да
Удаление блоков с тишиной в начале и конце        : Нет
При вычислениях CRC использовались нулевые сэмплы : Да
Интерфейс                                         : Встроенный Win32-интерфейс для Win NT/2000

Выходной формат : Внутренние WAV-операции
Формат сэмплов  : 44.100 Гц; 16 бит; стерео

TOC извлечённого CD

     Трек |   Старт  | Длительность | Начальный сектор | Конечный сектор
    ---------------------------------------------------------------------
       1  |  0:00.00 |    2:22.72   |           0      |      10721     
       2  |  2:22.72 |    2:21.32   |       10722      |      21328     
       3  |  4:44.29 |    2:05.38   |       21329      |      30741     
       4  |  6:49.67 |    4:06.68   |       30742      |      49259     
       5  | 10:56.60 |    3:08.54   |       49260      |      63413     
       6  | 14:05.39 |    2:43.41   |       63414      |      75679     
       7  | 16:49.05 |    4:16.73   |       75680      |      94952     
       8  | 21:06.03 |    2:08.15   |       94953      |     104567     
       9  | 23:14.18 |    3:43.63   |      104568      |     121355     
      10  | 26:58.06 |    2:35.40   |      121356      |     133020     
      11  | 29:33.46 |    1:14.45   |      133021      |     138615     
      12  | 30:48.16 |    2:06.02   |      138616      |     148067     
      13  | 32:54.18 |    3:20.30   |      148068      |     163097     
      14  | 36:14.48 |    3:21.43   |      163098      |     178215     
      15  | 39:36.16 |    2:35.68   |      178216      |     189908     
      16  | 42:12.09 |    3:16.44   |      189909      |     204652     

Характеристики диапазона извлечения и сообщения об ошибках

Выбранный диапазон

     Имя файла H:\Temp\ВИА Одесситы - Лимончики 1981\ВИА  Одесситы  - Лимончики.wav

     Пиковый уровень 97.0 %
     Качество диапазона 100.0 %
     CRC теста B054AA4A
     CRC копии B054AA4A
     Копирование... OK

Ошибок не произошло

Конец отчёта

http://savepic.ru/10803213.jpg

0

4

http://savepic.ru/10767373.png

0

5

[marquee=left]Каждый слушает то. что ему нравится Один Воркутинцев из Армении ... другой Одесситов . [/marquee]

0

6

Здравствуйте ребята  Нет мне не нужны гов...и Но со лов Админа муз. гр это прото шедевр..
я думаю для гов...к он то с китайского айфона слушает..

http://savepic.ru/10904756.png

Треклист:

01. Я - одессит
02. Как-то по проспекту
03. Наш Федя
04. Мясоедовская
05. Когда с тобой мы встретились
06. Журавли
07. А на дворе хорошая погода
08. Пара гнедых

https://yadi.sk/mail/?hash=D/UvPVIdsQDwgKMiHPpUnQCDD+FmaV8OsS1R7U0QCRI=&uid=193190115

https://yadi.sk/d/a-xwKIHMu9ZLp

.........................................

Дмитрий Витальевич я горжуь вами иногда....

=Spoiler написал(а):

http://savepic.ru/10893492.png

0

7

одеситыl вторая часть.Оц. Бориса с вт
Запись с провалами - по этому в WAV
Может кто поработает с ней.

https://yadi.sk/mail/?hash=8aV7A6djtigiKQ3S8iw5rWTLL3i5HLKaffNKULfjlBY=&uid=423865181

Спасибо Боря ...

0


Вы здесь » Tutnet-fufla » Шансон альбомы в mp3 » ВИА «Одесситы»