Tutnet-fufla

Объявление

Введите здесь ваше объявление.

Информация о пользователе

Привет, Гость! Войдите или зарегистрируйтесь.


Вы здесь » Tutnet-fufla » Шансон альбомы в mp3 » Могилевский Анатолий - Письма 1989(320)


Могилевский Анатолий - Письма 1989(320)

Сообщений 1 страница 3 из 3

1

Могилевский Анатолий - Письма 1989(320)

Все благодарности  - milruuk
Спасибо Вам ... Максимка ты крыса .. Это я тебе пендос говорю
и всё твоё FTP будет тут . Нет дам шанс тебе извиниться нет не пере до мной ....
снесу всё ...................
Спасибо Meloman77 за обложки


Пендос твоё то. что насрёшь на Брукленском мосту и не забудь убрать ...

Могилевский Анатолий - Письма 1989(320)

Исполнитель:  Могилевский Анатолий
Альбом: Письма
Год: 1989
Жанр: Шансон
Формат: mp3
Битрейт: 320

Когда Мужчина плачет
Мой альбом
Прощай Россия
Седина
Хочеться надеяться
Картина прошлого
Зачем
Прости-прощяй
Всё теперь против нас
Дождь осенний

Ссылки на FTP: (Всё тут )

http://www.shanson-plus.ru/forums/ftp/g … Pis'ma.rar

Пароль shanson-plus.ru

0

2

http://i73.fastpic.ru/big/2015/1105/28/0e0137d8a3b03596ba8fac30c6fecf28.jpg

http://i76.fastpic.ru/big/2015/1105/62/1e292c5cc153453bcc024f1bde093c62.jpg

0

3

Здравствуйте ребята нет боже упаси не хочу оскорблений
и напишу Спасибо за то.что человек тратил время сидел и цыфровал.
Сруль саломонович говорит что такого кач. нет ыв сети инт.
Он любезно предоставил ссылки понимая что только тут могут чётко и объективно ответить.
Когда он торговал на горбушке то не встречал такой записи .
vashenko-71  Спасибо Вам .

[24/96]Могилевский Анатолий - 1989 - Письма [Lossless]

Могилевский Анатолий - 1989 - Письма

Источник оцифровки: vashenko-71
Устройство воспроизведения: Электроника 004К
АЦП: ESI Juli@
Программа-оцифровщик: Adobe Audition CS6
Обработка: нет

01.Когда мужчина плачет
02.Альбом
03.Прощай Россия
04.Седина
05.Гранд дамы
06.Картины прошлого
07.Зачем
08.Прости - прощай
09.Все теперь против нас
10.Три письма
11.За кордоном Россия

WAVE 24/96
1,2 Gb

Анатолий Могилевский - Письма.cue

__________________
Анатолий Могилевский - Письма.cue

Код:
REM GENRE "Шансон"
REM DATE 1989
REM COMMENT "Оцифровка - vashenko-71"
TITLE "Письма"
PERFORMER "Анатолий Могилевский"
FILE "Могилевский Анатолий 1989+.wav" WAVE
  TRACK 01 AUDIO
TITLE "Когда мужчина плачет"
PERFORMER "Анатолий Могилевский"
    INDEX 01 00:04:27
  TRACK 02 AUDIO
TITLE "Альбом"
PERFORMER "Анатолий Могилевский"
    INDEX 01 04:56:39
  TRACK 03 AUDIO
TITLE "Прощай Россия"
PERFORMER "Анатолий Могилевский"
    INDEX 01 09:35:48
  TRACK 04 AUDIO
TITLE "Седина"
PERFORMER "Анатолий Могилевский"
    INDEX 01 11:54:13
  TRACK 05 AUDIO
TITLE "Гранд дамы"
PERFORMER "Анатолий Могилевский"
    INDEX 01 15:51:17
  TRACK 06 AUDIO
TITLE "Картины прошлого"
PERFORMER "Анатолий Могилевский"
    INDEX 01 18:19:45
  TRACK 07 AUDIO
TITLE "Зачем"
PERFORMER "Анатолий Могилевский"
    INDEX 01 23:17:36
  TRACK 08 AUDIO
TITLE "Прости - прощай"
PERFORMER "Анатолий Могилевский"
    INDEX 01 26:06:19
  TRACK 09 AUDIO
TITLE "Все теперь против нас"
PERFORMER "Анатолий Могилевский"
    INDEX 01 29:29:61
  TRACK 10 AUDIO
TITLE "Три письма"
PERFORMER "Анатолий Могилевский"
    INDEX 01 33:35:43
  TRACK 11 AUDIO
TITLE "За кордоном Россия"
PERFORMER "Анатолий Могилевский"
    INDEX 01 39:59:55

https://yadi.sk/mail/?hash=N53q0bOuoXX6eEXvbcrFXTK+awVpSWuZ0F586OQXwlI=&uid=173780589

0


Вы здесь » Tutnet-fufla » Шансон альбомы в mp3 » Могилевский Анатолий - Письма 1989(320)