Это интересно Скрыть

Tutnet-fufla

Объявление

Информация о пользователе

Привет, Гость! Войдите или зарегистрируйтесь.


Вы здесь » Tutnet-fufla » Шансон в форм. lossless » (24/96) Владимир Вольский -подайте,граждане- 1988 год (lossless)


(24/96) Владимир Вольский -подайте,граждане- 1988 год (lossless)

Сообщений 1 страница 2 из 2

1

Альбом любезно предоставил сруль саломонович с вт он же (дмитрий)
Оцифровка - Борис 63

(24/96) Владимир Вольский -подайте,граждане- 1988 год (lossless)

01 Я родственник Лёвы Толстого
02 Сарай, ты мой сарай
03 Один молодой кабальеро
04 Шел я по аллее Космонавтов
05 Мой корабль давно уже на рейде
06 Мы выходим на рассвете
07 Вам может показаться всё смешней
08 Как в одной шарашке я пахал на стройке
09 Фирма веников не вяжет
10 Огоньки в ночи меня так и манят
11 На свете жила горделивая дама

12 Слава богу, конец - еду-еду домой
13 Палочку волшебную Иван-дурак нашёл
14 Бывает, рождаются дети...

https://yadi.sk/mail/?hash=pURfBKmP1arZVxsHeJkp/Y5wPJ7chPmZZVh6AA8wEKY=&uid=193190115

Код:
REM GENRE "шансон"
REM DATE 1988
REM COMMENT "Оцифровка - Борис 63"
TITLE "Подайте, граждане!"
PERFORMER "Владимир Вольский"
FILE "Вольский 1988 .flac" WAVE
  TRACK 01 AUDIO
TITLE "Я родственник Лёвы Толстого"
PERFORMER "Владимир Вольский"
    INDEX 01 00:02:60
  TRACK 02 AUDIO
TITLE "Сарай, ты мой сарай"
PERFORMER "Владимир Вольский"
    INDEX 01 05:04:30
  TRACK 03 AUDIO
TITLE "Один молодой кабальеро"
PERFORMER "Владимир Вольский"
    INDEX 01 07:59:46
  TRACK 04 AUDIO
TITLE "Шел я по аллее Космонавтов"
PERFORMER "Владимир Вольский"
    INDEX 01 10:39:15
  TRACK 05 AUDIO
TITLE "Мой корабль давно уже на рейде"
PERFORMER "Владимир Вольский"
    INDEX 01 14:44:74
  TRACK 06 AUDIO
TITLE "Мы выходим на рассвете"
PERFORMER "Владимир Вольский"
    INDEX 01 18:26:74
  TRACK 07 AUDIO
TITLE "Вам может показаться всё смешней"
PERFORMER "Владимир Вольский"
    INDEX 01 21:06:54
  TRACK 08 AUDIO
TITLE "Как в одной шарашке я пахал на стройке"
PERFORMER "Владимир Вольский"
    INDEX 01 25:46:47
  TRACK 09 AUDIO
TITLE "Фирма веников не вяжет"
PERFORMER "Владимир Вольский"
    INDEX 01 29:15:25
  TRACK 10 AUDIO
TITLE "Огоньки в ночи меня так и манят"
PERFORMER "Владимир Вольский"
    INDEX 01 30:57:55
  TRACK 11 AUDIO
TITLE "На свете жила горделивая дама"
PERFORMER "Владимир Вольский"
    INDEX 01 34:04:28
  TRACK 12 AUDIO
TITLE "Слава богу, конец - еду-еду домой"
PERFORMER "Владимир Вольский"
    INDEX 01 37:51:23
  TRACK 13 AUDIO
TITLE "Палочку волшебную Иван-дурак нашёл"
PERFORMER "Владимир Вольский"
    INDEX 01 40:25:10
  TRACK 14 AUDIO
TITLE "Бывает, рождаются дети..."
PERFORMER "Владимир Вольский"
    INDEX 01 42:34:64

0

2

[audio]http://d.zaix.ru/4Wc6.mp3[/audio]

0


Вы здесь » Tutnet-fufla » Шансон в форм. lossless » (24/96) Владимир Вольский -подайте,граждане- 1988 год (lossless)