Tutnet-fufla

Объявление

Введите здесь ваше объявление.

Информация о пользователе

Привет, Гость! Войдите или зарегистрируйтесь.


Вы здесь » Tutnet-fufla » Шансон в форм. lossless » (24/96) Александр Шепиевкер (Шуберт) ‡1987 год (lossless)&


(24/96) Александр Шепиевкер (Шуберт) ‡1987 год (lossless)&

Сообщений 1 страница 5 из 5

1

(24/96) Александр Шепиевкер (Шуберт) -1987 год (lossless)

Оцифровка с катушки
Катушка подарена Борису 63 Игорем (Капитан_Воронин)
НАУЧИТЕСЬ ПИСАТЬ СПАСИБО ЛЮДЯМ
КУЙ НАПИСАЛ - СРУЛЬ САЛОМОНОВИЧЬ(спившийся негодяй с вт Он себя называет Админ. муз. груп. )

Треклист:

01 Александр Шепиевкер - Моя милиция меня бережет
02 Александр Шепиевкер - Коня мне подведите, коня мне вороного
03 Александр Шепиевкер - Нашей верной любви наступает предел
04 Александр Шепиевкер - Моя Одесса - родимый берег
05 Александр Шепиевкер - Жил я в шумном городе Одесса
06 Александр Шепиевкер - Помню, помню, мальчик я босой...
07 Александр Шепиевкер - Шаланды полные кефали
08 Александр Шепиевкер - В этой вечер ясный и чудесный...
09 Александр Шепиевкер - Весёлый одессит вы знаете ли новость...
10 Александр Шепиевкер - Добрый вечер, господа! Я одесский лабух...
11 Александр Шепиевкер - На базаре Двойру знают...
12 Александр Шепиевкер - Улицы Одессы все приметные...

13 Григорий Димант - Если я заболею...
14 Григорий Димант - Гори, гори моя Здезда!

https://yadi.sk/mail/?hash=CCAd4Z7VAqWi2GPzIJunriV+YBPmP/GzQ7oMeGSEX5A=&uid=193190115

Код:
REM GENRE "Shanson"
REM DATE 1987
REM COMMENT "Оцифровка - Борис 63"
TITLE "Магнитоальбом"
PERFORMER "Александр Шепиевкер"
FILE "Шепиевкер 87.flac" WAVE
  TRACK 01 AUDIO
TITLE "Моя милиция меня бережет"
PERFORMER "Александр Шепиевкер"
    INDEX 01 00:00:00
  TRACK 02 AUDIO
TITLE "Коня мне подведите, коня мне вороного"
PERFORMER "Александр Шепиевкер"
    INDEX 01 03:51:74
  TRACK 03 AUDIO
TITLE "Нашей верной любви наступает предел"
PERFORMER "Александр Шепиевкер"
    INDEX 01 09:25:60
  TRACK 04 AUDIO
TITLE "Моя Одесса - родимый берег"
PERFORMER "Александр Шепиевкер"
    INDEX 01 13:23:55
  TRACK 05 AUDIO
TITLE "Жил я в шумном городе Одесса"
PERFORMER "Александр Шепиевкер"
    INDEX 01 16:09:56
  TRACK 06 AUDIO
TITLE "Помню, помню, мальчик я босой..."
PERFORMER "Александр Шепиевкер"
    INDEX 01 19:07:41
  TRACK 07 AUDIO
TITLE "Шаланды полные кефали"
PERFORMER "Александр Шепиевкер"
    INDEX 01 22:06:38
  TRACK 08 AUDIO
TITLE "В этой вечер ясный и чудесный..."
PERFORMER "Александр Шепиевкер"
    INDEX 01 26:14:42
  TRACK 09 AUDIO
TITLE "Весёлый одессит вы знаете ли новость..."
PERFORMER "Александр Шепиевкер"
    INDEX 01 29:05:40
  TRACK 10 AUDIO
TITLE "Добрый вечер, господа! Я одесский лабух..."
PERFORMER "Александр Шепиевкер"
    INDEX 01 31:00:45
  TRACK 11 AUDIO
TITLE "На базаре Двойру знают..."
PERFORMER "Александр Шепиевкер"
    INDEX 01 33:08:17
  TRACK 12 AUDIO
TITLE "Улицы Одессы все приметные..."
PERFORMER "Александр Шепиевкер"
    INDEX 01 35:03:00
  TRACK 13 AUDIO
TITLE "Если я заболею..."
PERFORMER "Григорий Димант"
    INDEX 01 38:00:10
  TRACK 14 AUDIO
TITLE "Гори, гори моя Здезда!"
PERFORMER "Григорий Димант"
    INDEX 01 42:29:48

0

2

качивайте
с  27,06,2019г  ссылка на скачивание будет платной на вт
как и все остальные Чтоб скачать нужно будет вступить в  VIP клуб на вт и заплатить им  2000р
они вымогают деньги с польз....
форум vsetutonline.это комерческий ресурс Где можно скачать музыку заплатив деньги.
вступив в клуб внеся 2000р ... За эти деньги Вам дадут возможность скачивать кастр. и ворованный мат из сети инт.
Вам предлогают сохранять их файлы на своих дисках.... Вам передлогают оплачивакть Хост. ресурса .
У Админа нет денег содержать ресурс ... В блидайшее время он выставит его на продажу Но это будет просто пустой форум Но инд. в сети в инт и раскручен .... Там не будет муз. конт. ................. Этот админ просто вымогает деньги .....
Являясь Гр. Израиля он обращается к польз. ресурса на Идише. Его выскомерию нет придела Он считает себя высшей рассой .... и богом избраным ....
а остальные все нелюди - халопы .

0

3

0

4

Странный какой-то магнитофон - верхняя часть морды (панели) исписана вся на английском языке, а нижняя на русском. Сборный что ли? И такой бред шёл на импорт?

0

5

Сообщение для Sergio N90

http://rw6ase.narod.ru/00/mg_kat_/rostow_mk105s1.html

а то в ролике это лучший оц инт крутит

0


Вы здесь » Tutnet-fufla » Шансон в форм. lossless » (24/96) Александр Шепиевкер (Шуберт) ‡1987 год (lossless)&