Tutnet-fufla

Объявление

Введите здесь ваше объявление.

Информация о пользователе

Привет, Гость! Войдите или зарегистрируйтесь.


Вы здесь » Tutnet-fufla » Шансон альбомы в mp3 » Брыксин Константин и гр.Кабэ‡Такой бардак(мп3. lossless)&


Брыксин Константин и гр.Кабэ‡Такой бардак(мп3. lossless)&

Сообщений 1 страница 4 из 4

1

Исполнитель: Брыксин Константин и гр.Кабэ
Альбом: Такой бардак
Жанр: Шансон
Дата: 1991
Формат: MP3
Качество: 320 kbps
Размер архива: 86.4 мб
Файлообменники:FTP

Треклист:

01. Эй,мужик
02. Поднимись,народ честной
03. Горе ты мое(Грустные глаза)
04. Старушка-ночь(Чёрные глаза)
05. До чего ж Вы красивы(Я просто хочу надежды)
06. Боже правый(Ты уходишь)
07. Этот день мой(Дай пройти,лейтенант)
08. На материк(От злой тоски)
09. Такой бардак(Георгиевский крест)

Ссылки на FTP:

http://www.shanson-plus.ru/forums/ftp/g … bardak.rar

0

2

[24/96] Брыксин Константин и гр.Кабэ - Такой бардак 1991г.[Lossless]

Исполнитель: Константин Брыксин и гр.Кабэ
Альбом: Такой бардак
Год записи: 1991
Формат: FLAC
Тип рипа: image+cue
Битрейт аудио: lossless
Размер: 842 mb
Время: 35:52

01. Эй, мужик!
02. Поднимись, народ честной
03. Горе ты моё
04. Старушка - ночь
05. До чего ж Вы красивы
06. Боже правый
07. Дай пройти, лейтенант
08. На материк
09. Такой бардак

Отцифрованно с кассеты из личной коллекции, Tolik38

запись не порезана, CUE написан вручную, добавлено 3% на восстановление

http://yadi.sk/d/-3XmKYN1P48Pp
пароль: Tolik38

0

3

24/96) Константин Брыкин (Брыксин) и гр. КБ - Такой бардак-1991 год с СТМ 310 (lossless)

Оцифровка Борис 63  с катушки

ссылка

Скрытый текст:

Для просмотра скрытого текста - войдите или зарегистрируйтесь.

0

4

Константин Брыксин.cue

Код:
REM GENRE "Shanson"
REM DATE 1991
REM COMMENT "Оцифровка - Борис 63"
TITLE "Такой бардак"
PERFORMER "Костя Брыксин"
FILE "КБ91.flac" WAVE
  TRACK 01 AUDIO
TITLE "Позабытая Боженькой страна!"
PERFORMER "Костя Брыксин"
    INDEX 01 00:05:45
  TRACK 02 AUDIO
TITLE "Эх, Русь, веселей!"
PERFORMER "Костя Брыксин"
    INDEX 01 02:55:68
  TRACK 03 AUDIO
TITLE "Дай обниму я тебя!"
PERFORMER "Костя Брыксин"
    INDEX 01 06:20:51
  TRACK 04 AUDIO
TITLE "Ах, эти черные глаза"
PERFORMER "Костя Брыксин"
    INDEX 01 10:50:49
  TRACK 05 AUDIO
TITLE "Вы так тихо ко мне подошли..."
PERFORMER "Костя Брыксин"
    INDEX 01 15:43:22
  TRACK 06 AUDIO
TITLE "Ты уходишь, пусто без тебя"
PERFORMER "Костя Брыксин"
    INDEX 01 19:46:32
  TRACK 07 AUDIO
TITLE "Дай пройти, лейтенант!"
PERFORMER "Костя Брыксин"
    INDEX 01 24:46:41
  TRACK 08 AUDIO
TITLE "На Материк, на Магадан"
PERFORMER "Костя Брыксин"
    INDEX 01 28:20:32
  TRACK 09 AUDIO
TITLE "Такой бардак России нужен!"
PERFORMER "Костя Брыксин"
    INDEX 01 32:00:24
  TRACK 10 AUDIO
TITLE "Вставай, открой пошире двери"
PERFORMER "Неизв."
    INDEX 01 36:53:52
  TRACK 11 AUDIO
TITLE "Там горы, там море... (Анапа)"
PERFORMER "Неизв."
    INDEX 01 40:02:06

0


Вы здесь » Tutnet-fufla » Шансон альбомы в mp3 » Брыксин Константин и гр.Кабэ‡Такой бардак(мп3. lossless)&