Это интересно Скрыть

Tutnet-fufla

Объявление

Информация о пользователе

Привет, Гость! Войдите или зарегистрируйтесь.


Вы здесь » Tutnet-fufla » Шансон в форм. lossless » Школин Андрей - Дискография [Lossless]


Школин Андрей - Дискография [Lossless]

Сообщений 1 страница 6 из 6

1

Данные альбомы не украдены .а приватизизованы у спившигося Админа вт дмитрия (сруля)
который оскорбляет польз.провацируя их на оскорбления .который оскорбляет целые народы
на пару с модератором синдикатом пропагандируя фашиские лозунги.
Некогда он он был Админ. муз. ресурса .не когда не цифровал и не покупал записи чтоб
поделиться с людьми Это не ложь - а праывда. Заходя под разными никами на муз.
ресурсы он и там провацирует людей стравлмвая форумы... Он глумиться на верой людей
называя их (черножопыми)..... Он наглым оброзом сидит и перезаливает чужие реал.
Ввиду приватизационной прог. альбомы будут перенесены сюда чтоб люди могли скачать муз.
а не выслушивать оскорбления этого шизофреника и не смотреть как он оскорбляет реал. тыкая скринами
за качество той или иной записи.....................

Школин Андрей - Дискография (8 CD) [Lossless]

Исполнитель:Андрей Школин
Альбом: Новогодний этап
Жанр: Шансон
Год выпуска диска: 2004
Производитель диска: Россия,Мастер диск
Аудио кодек: APE
Тип рипа: image+.cue
Битрейт аудио: lossless
Продолжительность: 00:54:04

Трэклист:

1 И встретит Красноярск
2 Журавли на юг
3 Роза, Роза - 2
4 Новогодний этап
5 Рожа спекулянтская
6 Не жалей любви
7 Плач черемухи
8 Сон
9 Примадонна из Сибири
10 Моя Томичка
11 Русский снег
12 Теперь и ты в армии, мля
 
http://yadi.sk/d/_4lgnuhR1CbpV

Андрей Школин - СЕРИЯ «НАСТОЯЩИЙ ШАНСОН» - И встретит Красноярск...

Жанр: Шансон
Год выпуска диска: 2006
Производитель диска: Россия
Аудио кодек: FLAC
Тип рипа: image+.cue
Битрейт аудио: lossless
Продолжительность: 52:29

Трэклист:

01. И встретит Красноярск...
02. Над воронежской тюрьмой тишина
03. Сгоревшая спичка
04. Примадонна из Сибири
05. Ты мне руки положила на плечи
06. Жди-подожди
07. Плач черемухи
08. Воронок
09. Журавли на юг
10. Не жалей любви
11. Флиртует бабье лето
12. Новогодний этап

Все благодарности STOJAK

http://yadi.sk/d/mVFSnpuM1CAUe

Школин Андрей - В часик добрый (2002) Lossless

Источник (релизер): ГРЕХ

Трэклист 1 CD:

01. Давай, давай...
02. Сгоревшая спичка
03. Над воронежской тюрьмой
04. Ловцы синиц
05. Давай, браток...
06. Роза, Роза...
07. Танцуй, танцуй...
08. Мама, я жулика люблю
09. Лезгинка

Трэклист 2 CD:

01. Посмотри пианисту в глаза
02. Ты мне руки положишь на плечи
03. Давай наполним бокал...
04. Жди - подожди...
05. Тонкие деревья
06. Тонкие деревья - 2
07. Васильки
08. Но ты мне расскажи...
09. Андрюшенька
10. Флиртует бабье лето
 
http://yadi.sk/d/dqedrMkT1CbMt

В часик добрый... 2 CD (с бонусами) - 2002 год

Трэклист 1 CD:

01. Давай, давай...
02. Сгоревшая спичка
03. Над воронежской тюрьмой
04. Ловцы синиц
05. Давай, браток...
06. Роза, Роза...
07. Танцуй, танцуй...
08. Мама, я жулика люблю
09. Лезгинка
10. Мразь кабацкая (акустика)
11. Песенка Чебурашки (акустика)
12. Я верю наши танки ... (акустика)

Трэклист 2 CD:

01. Посмотри пианисту в глаза
02. Ты мне руки положишь на плечи
03. Давай наполним бокал...
04. Жди - подожди...
05. Тонкие деревья
06. Тонкие деревья - 2
07. Васильки
08. Но ты мне расскажи...
09. Андрюшенька
10. Флиртует бабье лето
11. Возвращение в Красноярск
12. Высотка

http://yadi.sk/d/IdiLvR1m1CbBX

Школин Андрей - Над воронежской тюрьмой тишина
(лучшие песни) (2004)

Жанр: шансон
Страна: Россия
Год выпуска: 2004
Аудио кодек: FLAC
Тип рипа: image+.cue
Битрейт аудио: lossless

Трэклист:

01. Над воронежской тюрьмой тишина
02. Воронок
03. Ты мне руки положишь на плечи...
04. Роза, Роза...
05. Флиртует бабье лето
06. Посмотри пианисту в глаза
07. Сгоревшая спичка
08. Тонкие деревья
09. Но ты мне расскажи...
10. Жди, подожди...
11. Ловцы синиц
12. Давай, браток...
13. Мама, я жулика люблю
14. За танкистов!
15. Тонкие деревья- 2
16. Андрюшенька

http://yadi.sk/d/l8DFNSHE1CbWP

Исполнитель: Андрей Школин
Альбом: Серия «НАСТОЯЩИЙ ШАНСОН» - И встретит Красноярск ...
Дата выпуска: 2006
Жанр: Chanson
Формат: FLAC (image+cue)
Битрейт: 1048 kbps
Продолжительность: 00:52:29
Релизер: STOJAK

Треклист:
01. И встретит Красноярск... (Музыка и слова Андрей Школин)
02. Над воронежской тюрьмой тишина (Музыка и слова Андрей Школин)
03. Сгоревшая спичка (Музыка и слова Андрей Школин)
04. Воронок (Музыка и слова Андрей Школин)
05. Не жалей любви (Музыка и слова Андрей Школин)
06. Ты мне руки положила на плечи (Музыка и слова Андрей Школин)
07. Жди - подожди... (Музыка и слова Андрей Школин)
08. Плач черёмухи (Музыка и слова Андрей Школин)
09. Примадонна из Сибири (Музыка и слова Андрей Школин)
10. Журавли на юг (А. Школин - О. Константинов, А. Школин)
11. Моя Томичка (Музыка и слова Андрей Школин)
12. Новогодний этап (Музыка и слова Андрей Школин)

http://yadi.sk/d/zmJBkKxpknGq

Новогодний этап - 2004

Релизер: Грех

Трэклист:

01. И встретит Красноярск...
02. Журавли на юг
03. Роза, Роза - 2
04. Новогодний этап
05. Рожа спекулянтская
06. Не жалей любви
07. Плач черемухи
08. Сон
09. Примадонна из Сибири
10. Моя Томичка
11. Русский снег
12. Теперь и ты в армии, мля...

http://yadi.sk/d/_4lgnuhR1CbpV

Сибирь - 2003 год

Релизер: Грех

Трэклист:

01. Примадонна из Сибири
02. Мультфильмы - 1
03. Моя Томичка
04. Немец
05. Новогодний этап
06. Дождёшься, усмехнёшься...
07. Штопаные сети
08. Русский снег
09. Кто бы нас простил?!
10. Твой танец
11. Сон
12. Хэппи-энд

http://yadi.sk/d/hiFozs4E1Cbwf

Из серии "Настроение шансон" - 2005

Трэклист:

01. И встретит Красноярск...
02. Новогодний этап
03. Не жалей любви
04. Примадонна из Сибири
05. Плач черемухи
06. Рожа спекулянтская
07. Журавли на юг
08. Русский снег
09. Моя Томичка
10. Ты мне руки положи на плечи...
11. Воронок
12. Флиртует бабье лето
13. Сгоревшая спичка
14. Жди-подожди
15. Ловцы синиц
16. Над Воронежской тюрьмой тишина

http://yadi.sk/d/LiukWFiD1Cbhl


STOJAK(Слава) и Грех (Не знаю имени)
Спасибо вам парни пусть люди слушают .а не унижаются перед
Господином Админ.муз.группы с вт

0

2

0

3

Что рука отвалилась одно слово написать людям кто поделился сидел цифровал.покупал .. ???

0

4

Оц Борис 63 с вт

Школин Андрей -третий магнитоальбом - 1993 год Lossless
.
Исполнитель - Андрей Школин
год - 1993
альбом - Бабье лето
Третий магнитоальбом
качество - wav
оцифровка с катушки из личной коллекции

1 Бабье лето
2 Давай,давай
3 Воронежская тюрьма
4 Лезгинка
5 Ты мне раскажи
6 Роза,Роза
7 Мама,я жулика люблю
8 Давай,браток
9 Шарманщик
10 Андрюшенька,Андрюшенька
[marquee=left]10 трек отсутствует украл сруль саломонович с вт... продаёт только за 5 шекелей[/marquee]

https://yadi.sk/d/AE49y60L1watl

0

5

(24/96) Андрей Школин - бабье лето- 1993 год (lossless)


Оцифровка Борис 63 с катушки купленной Александром (Вит70)
Спасибо ему.

http://savepic.ru/12210977.jpg

01 Андрей Школин - Бабье лето
02 Андрей Школин - Давай, давай
03 Андрей Школин - Воронежская тюрьма
04 Андрей Школин - Лезгинка
05 Андрей Школин - Ты мне раскажи
06 Андрей Школин - Роза, Роза
07 Андрей Школин - Мама, я жулика люблю
08 Андрей Школин - Давай, браток
09 Андрей Школин - Шарманщик
10 Андрей Школин - Андрюшенька, Андрюшенька

ссылка

https://yadi.sk/mail/?hash=qlBY6Yu0Qnhi0ES+j4ZjcmJWo6cxXeTURcNBlou+v6A=&uid=423865181
__________________

Бабье лето.cue составил сруль саломонович

https://yadi.sk/d/k0cnLfKuybB4F

Код:

REM GENRE "Шансон"
REM DATE 1993
REM COMMENT "Оцифровка - Борис 63"
TITLE "Бабье лето"
PERFORMER "Андрей Школин"
FILE "Школин 93.flac" WAVE
  TRACK 01 AUDIO
TITLE "Бабье лето"
PERFORMER "Андрей Школин"
    INDEX 01 00:04:00
  TRACK 02 AUDIO
TITLE "Давай, давай"
PERFORMER "Андрей Школин"
    INDEX 01 05:19:28
  TRACK 03 AUDIO
TITLE "Воронежская тюрьма"
PERFORMER "Андрей Школин"
    INDEX 01 09:14:62
  TRACK 04 AUDIO
TITLE "Лезгинка"
PERFORMER "Андрей Школин"
    INDEX 01 13:05:34
  TRACK 05 AUDIO
TITLE "Ты мне раскажи"
PERFORMER "Андрей Школин"
    INDEX 01 18:43:59
  TRACK 06 AUDIO
TITLE "Роза, Роза"
PERFORMER "Андрей Школин"
    INDEX 01 23:21:56
  TRACK 07 AUDIO
TITLE "Мама, я жулика люблю"
PERFORMER "Андрей Школин"
    INDEX 01 27:54:29
  TRACK 08 AUDIO
TITLE "Давай, браток"
PERFORMER "Андрей Школин"
    INDEX 01 33:24:58
  TRACK 09 AUDIO
TITLE "Шарманщик"
PERFORMER "Андрей Школин"
    INDEX 01 39:36:20
  TRACK 10 AUDIO
TITLE "Андрюшенька, Андрюшенька"
PERFORMER "Андрей Школин"
    INDEX 01 42:58:74

__________________

http://savepic.ru/12243744.png

0

6

Благодаря Олимпу исполнитель перестал картавить

http://savepic.ru/13535691.jpg

http://savepic.ru/13539787.png

Андрей Школин 1993 "Флиртует бабье лето"

01. Флиртует бабье лето
02. Давай, давай
03. На Воронежской тюрьмой тишина...
04. На Кавказе есть страна....
05. Но ты мне расскажи
06. Роза, Роза
07. Жулик будет воровать
08. Давай, братан
09. Сумасшедший шарманщик
10. Андрюшенька

https://yadi.sk/mail/?hash=t0gP9HtAsfRfjSoGQEo5Y0oCi+F7cdivuAVavvcLyco=&uid=423865181&force_show=1

REM GENRE "ШАНСОН"
REM DATE 1993
REM COMMENT "Оцифровка - Борис 63"
TITLE "Флиртует бабье лето"
PERFORMER "Андрей Школин"
FILE "Школин.flac" WAVE
  TRACK 01 AUDIO
TITLE "Флиртует бабье лето"
PERFORMER "Андрей Школин"
    INDEX 01 00:02:00
  TRACK 02 AUDIO
TITLE "Давай, давай"
PERFORMER "Андрей Школин"
    INDEX 01 04:38:30
  TRACK 03 AUDIO
TITLE "На Воронежской тюрьмой тишина..."
PERFORMER "Андрей Школин"
    INDEX 01 08:34:37
  TRACK 04 AUDIO
TITLE "На Кавказе есть страна...."
PERFORMER "Андрей Школин"
    INDEX 01 12:22:50
  TRACK 05 AUDIO
TITLE "Но ты мне расскажи"
PERFORMER "Андрей Школин"
    INDEX 01 18:02:31
  TRACK 06 AUDIO
TITLE "Роза, Роза"
PERFORMER "Андрей Школин"
    INDEX 01 22:40:11
  TRACK 07 AUDIO
TITLE "Жулик будет воровать"
PERFORMER "Андрей Школин"
    INDEX 01 27:14:42
  TRACK 08 AUDIO
TITLE "Давай, братан"
PERFORMER "Андрей Школин"
    INDEX 01 32:44:65
  TRACK 09 AUDIO
TITLE "Сумасшедший шарманщик"
PERFORMER "Андрей Школин"
    INDEX 01 38:56:22
  TRACK 10 AUDIO
TITLE "Андрюшенька"
PERFORMER "Андрей Школин"
    INDEX 01 42:19:17
  TRACK 11 AUDIO
TITLE "Пусто"
PERFORMER ""
    INDEX 01 46:46:59

............................................................
Это спившимуся придурку с вт ... мите

=Spoiler написал(а):

http://savepic.ru/13528523.jpg

Но обратила внимание на альбом "И встретит Красноярск" 2006г, который выложен дважды, но оба раза он неправильный (12 песен вместо 14-ти):
1. В посте № 2 - отсутствуют песни "Моя Томичка" и "Русский снег":
Трэклист:
01. И встретит Красноярск...
02. Над воронежской тюрьмой тишина
03. Сгоревшая спичка
04. Примадонна из Сибири
05. Ты мне руки положила на плечи
06. Жди-подожди
07. Плач черемухи
08. Воронок
09. Журавли на юг
10. Не жалей любви
11. Флиртует бабье лето
12. Новогодний этап

2. В посте № 5 - треклист вообще не соответствует back-обложке и отсутствуют песни "Русский снег" и "Флиртует бабье лето":
Треклист:
01. И встретит Красноярск... (Музыка и слова Андрей Школин)
02. Над воронежской тюрьмой тишина (Музыка и слова Андрей Школин)
03. Сгоревшая спичка (Музыка и слова Андрей Школин)
04. Воронок (Музыка и слова Андрей Школин)
05. Не жалей любви (Музыка и слова Андрей Школин)
06. Ты мне руки положила на плечи (Музыка и слова Андрей Школин)
07. Жди - подожди... (Музыка и слова Андрей Школин)
08. Плач черёмухи (Музыка и слова Андрей Школин)
09. Примадонна из Сибири (Музыка и слова Андрей Школин)
10. Журавли на юг (А. Школин - О. Константинов, А. Школин)
11. Моя Томичка (Музыка и слова Андрей Школин)
12. Новогодний этап (Музыка и слова Андрей Школин)

На самом деле альбом должен быть таким (эта back-обложка имеется в обоих вариантах):

0


Вы здесь » Tutnet-fufla » Шансон в форм. lossless » Школин Андрей - Дискография [Lossless]