Tutnet-fufla

Объявление

Введите здесь ваше объявление.

Информация о пользователе

Привет, Гость! Войдите или зарегистрируйтесь.


Вы здесь » Tutnet-fufla » Шансон в форм. lossless » (24/96) Luba Uspenskaya - My Loved One ‡1985 (lossless)&


(24/96) Luba Uspenskaya - My Loved One ‡1985 (lossless)&

Сообщений 1 страница 4 из 4

1

(24/96) Luba Uspenskaya - My Loved One (Любовь Успенская - Любимый) 1985 (lossless)

http://savepic.ru/8242872.png

Оцифровка с кассеты

Подача сигнала - кассетная дека - NACAMICHI DRAGON

Кассета - BASF (normal)

Запись на кассету сделана с винила

Треклист:

01 Любовь Успенская - Ещё не поздно (It's Not Too Late)
02 Любовь Успенская - Найди себя (Find Your Soul)
03 Любовь Успенская - Мой звёздный сад (My Garden Full Of Stars)
04 Любовь Успенская - Гусарская рулетка (Russian Roulette)
05 Любовь Успенская - Прости меня, мама! (Oh, Mama Forgive Me)
06 Любовь Успенская - Возьми меня с собой! (Take Me Along With You)
07 Любовь Успенская - Люба-Любонька (Luba)
08 Любовь Успенская - Любимый (My Loved One)
09 Любовь Успенская - Не верь этим словам (Don't Trast These Words)
10 Любовь Успенская - Не может быть (It Couldn't Be)
11 Любовь Успенская - Калина (Kalina)

Первая песня с браком!!!!!
Последняя песня не до конца (не много) и отчетливо слышен перескок пластинки
В паузах между песнями прекрасно слышен треск ВИНИЛА!!!

Приятного прослушивания!!!

https://yadi.sk/mail/?hash=AIentvXyrhHsjWtTHeNftGoqNSOsHB8pcMByherSkEU=&uid=193190115

REM GENRE "Shanson"
REM DATE 1985
REM COMMENT "Оцифровка - Борис 63"
TITLE "My Loved One"
PERFORMER "Любовь Успенская"
FILE "Успенская1.flac" WAVE
  TRACK 01 AUDIO
TITLE "Ещё не поздно (It's Not Too Late)"
PERFORMER "Любовь Успенская"
    INDEX 01 00:01:25
  TRACK 02 AUDIO
TITLE "Найди себя (Find Your Soul)"
PERFORMER "Любовь Успенская"
    INDEX 01 04:01:71
  TRACK 03 AUDIO
TITLE "Мой звёздный сад (My Garden Full Of Stars)"
PERFORMER "Любовь Успенская"
    INDEX 01 08:48:52
  TRACK 04 AUDIO
TITLE "Гусарская рулетка (Russian Roulette)"
PERFORMER "Любовь Успенская"
    INDEX 01 13:26:67
  TRACK 05 AUDIO
TITLE "Прости меня, мама! (Oh, Mama Forgive Me)"
PERFORMER "Любовь Успенская"
    INDEX 01 18:48:05
  TRACK 06 AUDIO
TITLE "Возьми меня с собой! (Take Me Along With You)"
PERFORMER "Любовь Успенская"
    INDEX 01 22:27:61
  TRACK 07 AUDIO
TITLE "Люба-Любонька (Luba)"
PERFORMER "Любовь Успенская"
    INDEX 01 26:34:00
  TRACK 08 AUDIO
TITLE "Любимый (My Loved One)"
PERFORMER "Любовь Успенская"
    INDEX 01 30:10:27
  TRACK 09 AUDIO
TITLE "Не верь этим словам (Don't Trast These Words)"
PERFORMER "Любовь Успенская"
    INDEX 01 33:39:62
  TRACK 10 AUDIO
TITLE "Не может быть (It Couldn't Be)"
PERFORMER "Любовь Успенская"
    INDEX 01 37:23:33
  TRACK 11 AUDIO
TITLE "Калина (Kalina)"
PERFORMER "Любовь Успенская"
    INDEX 01 43:12:72

0

2

Сообщение для Dimon48p Дмитрий Витальевич позвольте спросить А как Вы исправили скорость ???????

http://savepic.ru/8223356.png

Это почему у меня нет прав ???? Вам кто сказал это ???????
Востановите мой ник и там напишите Суп. Мод. ....

0

3

Ссылку предоставил сруль саломонович - дмитрий Все благодарности -
redcaesar

Luba Uspenskaya - My Loved One / Люба Успенская – Любимый

http://savepic.ru/11852907.png

Год записи: 1984
Год первого издания: 1985
Год издания кассеты: 1994
Лейбл: Бекар Records/Союз
Номер по каталогу: SZ0288
Страна-производитель: Россия
Сканы в комплекте
Аудио кодек: FLAC
Тип рипа: image+.cue
Формат записи: 24/96
Объем: 1,14 Гб
Продолжительность: 47:08

Треклист:

01. Студия "Союз" представляет
02. It's not too late / Ещё не поздно...
03. Find your soul / Без меня
04. My Garden full of stars / Мой звёздный тополиный сад
05. Russian roulette / Гусарская рулетка
06. Oh, mama forgive me / Мамочка-мама
07. Take me along with you / Возьми меня с собой
08. Luba / Люба-Любонька
09. My loved one / Любимый
10. Don't trust these words / Не верь чужим словам
11. It couldn't be / Не может быть
12. Kalina / Калина
13. That's all it is / Вот и всё

Оцифровка с кассеты из личной коллекции.
Устройство воспроизведения: Dual C-824
Запись: Zoom H4n
Обработка: нет

Скачать FLAC+CUE:

https://yadi.sk/mail/?hash=ONSJvcDTK/ntA1inn9zaWFNsyWkMVrMM4rRg9oyVfYk=

0

4

А вот это от  miramax31
У меня нет просто слов ..Он сообщил что запись купил на Брукленском мосту на толкучке.
.

http://savepic.ru/11859052.png
http://savepic.ru/11848812.png

Успенская Любовь - My Loved one(Любимый) 1985,1994(320)

LP 1985
MC 1985

СD 1994

01. Еще не поздно
02. Найди себя
03. Мой звёздный сад
04. Гусарская рулетка
05. Прости меня, мама
06. Возьми меня с собой
07. Люба-Любонька
08. Любимый
09. Не верь этим словам
10. Не может быть
11. Калинка
12. Вот и все

Ссылки на FTP:

http://www.shanson-plus.ru/forums/ftp/g … ubimiy.rar

Пароль:  shanson-plus.ru

0


Вы здесь » Tutnet-fufla » Шансон в форм. lossless » (24/96) Luba Uspenskaya - My Loved One ‡1985 (lossless)&