Tutnet-fufla

Объявление

Введите здесь ваше объявление.

Информация о пользователе

Привет, Гость! Войдите или зарегистрируйтесь.


Вы здесь » Tutnet-fufla » Аркадий Северный Записи и концерты » Аркадий Северный и Владимир Шандриков‡Алиментщик (кассета)lossless&


Аркадий Северный и Владимир Шандриков‡Алиментщик (кассета)lossless&

Сообщений 1 страница 5 из 5

1

(24/96) Аркадий Северный и Владимир Шандриков - Алиментщик- (кассета)(lossless)

А.Северный и В.Шандриков - Алиментщик


Оцифровка Борис 63  с кассеты Ильи


Треклист:

01 А.Северный и В.Шандриков - Вступление
02 А.Северный и В.Шандриков - Здравствуй, Серёжа!
03 А.Северный и В.Шандриков - Скрипач
04 А.Северный и В.Шандриков - Людкины глаза
05 А.Северный и В.Шандриков - Маски
06 А.Северный и В.Шандриков - Алиментщик
07 А.Северный и В.Шандриков - Хуторок
08 А.Северный и В.Шандриков - Здравствуй, мама!
09 А.Северный и В.Шандриков - Сиреневый туман
10 А.Северный и В.Шандриков - В одесской пивной
11 А.Северный и В.Шандриков - Я и мой сосед Хаем
12 А.Северный и В.Шандриков - Крестины
13 А.Северный и В.Шандриков - Бацилла и чума

14 А.Северный и В.Шандриков - Заключительная

https://yadi.sk/mail/?hash=Qxawyl+wuR0olUBQ1nU+Nm4jg2Kc/tY70kgzxKofEQM=&uid=193190115
https://yadi.sk/mail/?hash=H/8lut5IXTJ/d6EuUGa9ZN0RpuuLT/J65nz0CKzeCMg=&uid=193190115

А.Северный и В.Шандриков - Алиментщик.cue

https://yadi.sk/d/bno3J1BHjSrVD

Код:
REM GENRE "Shanson"
REM COMMENT "Оцифровка - Борис 63"
TITLE "Алиментщик"
PERFORMER "А.Северный и В.Шандриков"
FILE "1 ст.flac" WAVE
  TRACK 01 AUDIO
TITLE "Вступление"
PERFORMER "А.Северный и В.Шандриков"
    INDEX 01 00:00:00
  TRACK 02 AUDIO
TITLE "Здравствуй, Серёжа!"
PERFORMER "А.Северный и В.Шандриков"
    INDEX 01 01:06:43
  TRACK 03 AUDIO
TITLE "Скрипач"
PERFORMER "А.Северный и В.Шандриков"
    INDEX 01 03:44:39
  TRACK 04 AUDIO
TITLE "Людкины глаза"
PERFORMER "А.Северный и В.Шандриков"
    INDEX 01 09:00:47
  TRACK 05 AUDIO
TITLE "Маски"
PERFORMER "А.Северный и В.Шандриков"
    INDEX 01 11:06:12
  TRACK 06 AUDIO
TITLE "Алиментщик"
PERFORMER "А.Северный и В.Шандриков"
    INDEX 01 13:57:02
  TRACK 07 AUDIO
TITLE "Хуторок"
PERFORMER "А.Северный и В.Шандриков"
    INDEX 01 15:59:74
  TRACK 08 AUDIO
TITLE "Здравствуй, мама!"
PERFORMER "А.Северный и В.Шандриков"
    INDEX 01 19:09:24
FILE "2 ст.flac" WAVE
  TRACK 09 AUDIO
TITLE "Сиреневый туман"
PERFORMER "А.Северный и В.Шандриков"
    INDEX 01 00:00:54
  TRACK 10 AUDIO
TITLE "В одесской пивной"
PERFORMER "А.Северный и В.Шандриков"
    INDEX 01 04:07:23
  TRACK 11 AUDIO
TITLE "Я и мой сосед Хаем"
PERFORMER "А.Северный и В.Шандриков"
    INDEX 01 08:12:56
  TRACK 12 AUDIO
TITLE "Крестины"
PERFORMER "А.Северный и В.Шандриков"
    INDEX 01 11:02:61
  TRACK 13 AUDIO
TITLE "Бацилла и чума"
PERFORMER "А.Северный и В.Шандриков"
    INDEX 01 17:08:09
  TRACK 14 AUDIO
TITLE "Заключительная"
PERFORMER "А.Северный и В.Шандриков"
    INDEX 01 20:01:57

Коменттарии спившегося админа муз. гр.
сруля саломоновича

=Spoiler написал(а):

так... значит...
даже не скачивая
если на кассете указано - Digital
значит оригинал обработан в цифре, а уже после этого записан на кассету.
Паузы тщательно оцищены при обработке, там просто пустота. Спад на 16 kHZ,
как в принципе и положено для плёнки типа нормал на 4-ой скорости.
Дека высокого класса вытянула из кассеты всё возможное!

0

2

Music Group открывает свободный доступ гостям
будет открыт доступ ко всем приватным. муз. альбомам


Вот и я сегодня в свободном доступе скачал  с ВТО А.Северный и В.Шандриков с анс Ч.Ч. автор релиза Симагинец,понимая,что холявы не будет, а вдруг,после прослушивания этого шедевра ,собака моя долго стонала ,а мне самому было стыдно за симагинца и за Питер.

0

3

WQR
Гость
Здравствуйте если я правыильно понимаю Вы говорите вот об этом ???

http://s5.uploads.ru/kM24T.png

я не в коей мере не оскорбляю этого человека Один вопрос у меня ко всем .
А от куда этот конц и в хорошем кач может быть на вт ???

0

4

Вы говорите вот об этом ???


Да,именно об этот.Ну как откуда,он же есть в природе в хорошем качестве,наверное при желании можно найти,а это же издевательство на умершими.

0

5

Аркадий Северный и Владимир Шандриков‡с анс. Ч.Ч. №3 (1977) &

0


Вы здесь » Tutnet-fufla » Аркадий Северный Записи и концерты » Аркадий Северный и Владимир Шандриков‡Алиментщик (кассета)lossless&