Tutnet-fufla

Объявление

Введите здесь ваше объявление.

Информация о пользователе

Привет, Гость! Войдите или зарегистрируйтесь.


Вы здесь » Tutnet-fufla » Аркадий Северный Записи и концерты » Аркадий Северный с анс.Ч/Ч‡Херсонский концерт&


Аркадий Северный с анс.Ч/Ч‡Херсонский концерт&

Сообщений 1 страница 7 из 7

1

Здравствуйте ребята .Минуточку поясню сразу запись чужая взята мною без разрешения
я нечего не делакл на треки порезал просто (нравится мне так) Писать имя человека повременю пока
Но напишу спасибо и извинюсь что выставил без разрешения ...
Не спишите писать что запись гов..о и.т.д Есть в лучшем качестве так поделитьсь нет не со мной .а с людьми ..... Вот это один трек чтоб было понятно

https://yadi.sk/d/6RqZEkiunK7Nh

Аркадий Северный с анс.Ч/Ч – Херсонский концерт
г.Одесса, август 1979 г.

Исполнитель:Аркадий Северный
Альбом: Херсонский концерт
Год записи: 1979
Формат: FLAC
Битрейт аудио: lossless

Часть 1
01.Вступление.
02.Серебрился серенький дымок.
03.Семь-сорок.
04.В доме Шмеерзона.
05.На Одесские сюжеты.
06.Купите папиросы.
07.Гром прогремел.
08.Жил я в шумном городе Одесса.
09.Дамы, господа.
10.А я один сидю на плинтуаре.
11.Алёша рыжий.
12.Отцветшее счастье.
13.Сашка.

Часть 2
01.Два громилы.
02.Гоп со смыком.
03.Алёшка жарил на баяне.
04.Шел трамвай десятый номер.
05.Прошли года.
06.Вот канаю я на бан.
07.В Одессе я родился.
08.Интро + Инструментальное поппури на Одесские песни.
09.Вы хочите песен.
10.Здравствуйте, моё почтенье.
11.С Одесского кичмана.
12.Свадьба в доме дяди Зуя.

https://yadi.sk/d/ThRs04ZnnK5oK

https://yadi.sk/d/0YaFOMKLnK6aB

0

2

вот этот вариант моно купить на вт вступив клуб  Говорят что первая копия

- 1979 Херсонский концерт с анс. Черноморская чайка (бобина, Sony TS - 755A, зв. к. CSB THX)

0

3

Херсонский концерт. Заказывал у реставраторов   https://transfiles.ru/ekd03

0

4

Сообщение для Халява спасибо вам

0

5

Сообщение для Халява знаете что меня огорчает что из 38 скачавших никто не написал пару слов ... не поинт..... нужно было один трек ыфставить т.к наверно у всех есть в луч. кач..... а ваш рел спиздят и скажут что от брата васи или в приват засунут за деньги

0

6

Сообщение для Халява
Скачал, послушал. Неплохо ребята сделали . Стало звучать.
Спасибо
перевел в 16х44.1 от ХАЛЯВЫ

--------------------------------------------------------------------------------
Проанализировано: А. Северный с анс.Черноморская чайка / Херсонский концерт
--------------------------------------------------------------------------------

DR       Пик         RMSДлина    Трек
--------------------------------------------------------------------------------
DR13      -2.57 дБ   -18.83 дБ      1:07 ?-Вступление.
DR14      -0.21 дБ   -18.66 дБ      4:43 ?-Серебрился серенький дымок
DR13      -1.49 дБ   -18.42 дБ      4:42 ?-Семь-сорок
DR13      -1.99 дБ   -18.32 дБ      4:56 ?-В доме Шмеерзона.
DR13      -1.68 дБ   -17.33 дБ      4:43 ?-На Одесские сюжеты.
DR13      -1.22 дБ   -18.09 дБ      7:04 ?-Купите папиросы.
DR12      -2.48 дБ   -16.14 дБ      2:49 ?-Гром прогремел.
DR12      -0.56 дБ   -16.69 дБ      4:22 ?-Жил я в шумном городе Одесса.
DR12      -1.43 дБ   -16.42 дБ      6:07 ?-Дамы, господа.
DR12      -0.83 дБ   -16.36 дБ      2:37 ?-А я один сидю на плентуаре.
DR13      -1.97 дБ   -18.59 дБ      6:07 ?-Алёша рыжий
DR12      -3.17 дБ   -19.65 дБ      6:18 ?-Отцветшее счастье.
DR13      -2.40 дБ   -18.21 дБ      5:08 ?-Сашка.
DR13      -1.68 дБ   -17.94 дБ      5:54 ?-Два громилы.
DR11      -3.03 дБ   -17.71 дБ      4:11 ?-Гоп со смыком
DR11      -2.11 дБ   -16.94 дБ      2:40 ?-Алёшка жарил на баяне.
DR12      -2.41 дБ   -17.38 дБ      5:53 ?-Шел транвай десятый номер.
DR12      -3.61 дБ   -17.67 дБ      4:46 ?-Прошли года.
DR11      -2.06 дБ   -16.84 дБ      3:30 ?-Вот канаю я на бан
DR11      -2.30 дБ   -17.00 дБ      2:09 ?-В Одессе я родился.
DR12      -2.81 дБ   -17.52 дБ      8:16 ?-Интро + Инструментальное поппури на Одесские песни
DR11      -1.82 дБ   -15.39 дБ      5:33 ?-Вы хочите песен.
DR11      -2.65 дБ   -15.90 дБ      7:14 ?-Здравствуйте, моё почтенье.
DR12      -1.78 дБ   -16.42 дБ      5:45 ?-С Одесского кичмана.
DR12      -2.17 дБ   -16.33 дБ      4:58 ?-Свадьба в доме дяди Зуя
--------------------------------------------------------------------------------

Количество треков: 25
Официальное значение DR: DR12

Частота дискретизации:  44100 Гц
Каналов:                2
Бит на сэмпл:           16
Битрейт:                920 kbps
Кодек:                  FLAC

СКАЧАТЬ  https://transfiles.ru/rvmvl

Отредактировано paveltmb68 (2019-07-12 19:19:17)

0

7

Еще качаю. Но уже спасибо

0


Вы здесь » Tutnet-fufla » Аркадий Северный Записи и концерты » Аркадий Северный с анс.Ч/Ч‡Херсонский концерт&