Tutnet-fufla

Объявление

Введите здесь ваше объявление.

Информация о пользователе

Привет, Гость! Войдите или зарегистрируйтесь.


Вы здесь » Tutnet-fufla » Шансон в форм. lossless » Юрий Алмазов - Седая Сибирь


Юрий Алмазов - Седая Сибирь

Сообщений 1 страница 2 из 2

1

Юрий Алмазов - Седая Сибирь

Жанр: Шансон
Страна-производитель диска: Россия
Год издания: 2005
Издатель (лейбл): Master Sound
Номер по каталогу: MS CD 594/05
Аудиокодек: FLAC (*.flac)
Тип рипа: image+.cue
Битрейт аудио: lossless
Продолжительность: 57:38
Источник (релизер): nikolya200
Наличие сканов в содержимом раздачи: да

Треклист:

01. Здравствуйте
02. Седая Сибирь
03. Вот такая история
04. Где ты друг...
05. Ночка
06. Проводы
07. Жизнь блатная вора
08. Одесская история
09. Дальнобойщики
10. Анапа
11. Россия вольная
12. Мы оба правы
13. Там за решеткой
14. Посмотри мне в глаза

       
https://yadi.sk/d/zk5Vu8-r1Woia

0

2

Exact Audio Copy V1.0 beta 3 from 29. August 2011

Отчёт EAC об извлечении, выполненном 25. декабря 2012, 20:23

Юрий Алмазов / Седая Сибирь

Дисковод: HL-DT-STDVDRAM GH22NS70   Adapter: 3  ID: 1

Режим чтения                 : Достоверность
Использование точного потока : Да
Отключение кэша аудио        : Да
Использование указателей C2  : Нет

Коррекция смещения при чтении                     : 667
Способность читать области Lead-in и Lead-out     : Нет
Заполнение пропущенных сэмплов тишиной            : Да
Удаление блоков с тишиной в начале и конце        : Нет
При вычислениях CRC использовались нулевые сэмплы : Да
Интерфейс                                         : Установленный внешний ASPI-интерфейс

Выходной формат : Внутренние WAV-операции
Формат сэмплов  : 44.100 Гц; 16 бит; стерео

TOC извлечённого CD

     Трек |   Старт  | Длительность | Начальный сектор | Конечный сектор
    ---------------------------------------------------------------------
       1  |  0:00.00 |    2:53.11   |           0      |      12985     
       2  |  2:53.11 |    4:03.51   |       12986      |      31261     
       3  |  6:56.62 |    3:42.74   |       31262      |      47985     
       4  | 10:39.61 |    4:40.68   |       47986      |      69053     
       5  | 15:20.54 |    3:45.32   |       69054      |      85960     
       6  | 19:06.11 |    3:55.56   |       85961      |     103641     
       7  | 23:01.67 |    6:24.26   |      103642      |     132467     
       8  | 29:26.18 |    4:26.67   |      132468      |     152484     
       9  | 33:53.10 |    4:09.01   |      152485      |     171160     
      10  | 38:02.11 |    3:21.09   |      171161      |     186244     
      11  | 41:23.20 |    3:36.34   |      186245      |     202478     
      12  | 44:59.54 |    4:14.00   |      202479      |     221528     
      13  | 49:13.54 |    3:13.73   |      221529      |     236076     
      14  | 52:27.52 |    5:10.48   |      236077      |     259374     

Характеристики диапазона извлечения и сообщения об ошибках

Выбранный диапазон

     Имя файла F:\Юрий Алмазов\Юрий Алмазов - Седая Сибирь.wav

     Пиковый уровень 98.8 %
     Скорость извлечения 7.3 X
     Качество диапазона 100.0 %
     CRC теста 1B636322
     CRC копии 1B636322
     Копирование... OK

Ошибок не произошло

AccurateRip: сводка

Трек  1  : извлечено точно (доверие 1)  [5820DE51]  (AR v2)
Трек  2  : извлечено точно (доверие 1)  [0073032A]  (AR v2)
Трек  3  : извлечено точно (доверие 1)  [ADA73618]  (AR v2)
Трек  4  : извлечено точно (доверие 1)  [3D4BC4DC]  (AR v2)
Трек  5  : извлечено точно (доверие 1)  [DA33A766]  (AR v2)
Трек  6  : извлечено точно (доверие 1)  [67E85165]  (AR v2)
Трек  7  : извлечено точно (доверие 1)  [C1F0E33B]  (AR v2)
Трек  8  : извлечено точно (доверие 1)  [5193B63E]  (AR v2)
Трек  9  : извлечено точно (доверие 1)  [422B2902]  (AR v2)
Трек 10  : извлечено точно (доверие 1)  [C9E3A558]  (AR v2)
Трек 11  : извлечено точно (доверие 1)  [4ACDAACE]  (AR v2)
Трек 12  : извлечено точно (доверие 1)  [AF827D61]  (AR v2)
Трек 13  : извлечено точно (доверие 1)  [65A13890]  (AR v2)
Трек 14  : извлечено точно (доверие 1)  [00375B05]  (AR v2)

Все треки извлечены точно

Конец отчёта

http://s7.uploads.ru/AXFVc.png

0


Вы здесь » Tutnet-fufla » Шансон в форм. lossless » Юрий Алмазов - Седая Сибирь