Это интересно Скрыть

Tutnet-fufla

Объявление

Информация о пользователе

Привет, Гость! Войдите или зарегистрируйтесь.


Вы здесь » Tutnet-fufla » Оцифровки ВИНИЛА » (24/96) Юрий Антонов - Крыша дома твоего‡(Записи 1979-1983 г) Lossles&


(24/96) Юрий Антонов - Крыша дома твоего‡(Записи 1979-1983 г) Lossles&

Сообщений 1 страница 2 из 2

1

(24/96) Юрий Антонов - Крыша дома твоего (Записи 1979-1983 г) Lossless

   

Оцифровка с пластинки
Борис 63

Треклист:

01 Юрий Антонов - Жизнь
02 Юрий Антонов - Вот как бывает
03 Юрий Антонов - Море
04 Юрий Антонов - Зеркало
05 Юрий Антонов - Я вспоминаю
06 Юрий Антонов - Двадцать лет спустя
07 Юрий Антонов - Не забывай
08 Юрий Антонов - Анастасия
09 Юрий Антонов - Золотая лестница
10 Юрий Антонов - Дорога к морю
11 Юрий Антонов - Крыша дома твоего

CUE:

Код:
REM GENRE "ПОП"
REM DATE Записи 1979-1983 гг
REM COMMENT "Оцифровка - Борис 63"
TITLE "Крыша дома твоего"
PERFORMER "Юрий Антонов"
FILE "1.flac" WAVE
  TRACK 01 AUDIO
TITLE "Жизнь"
PERFORMER "Юрий Антонов"
    INDEX 01 00:00:00
  TRACK 02 AUDIO
TITLE "Вот как бывает"
PERFORMER "Юрий Антонов"
    INDEX 01 05:02:07
  TRACK 03 AUDIO
TITLE "Море"
PERFORMER "Юрий Антонов"
    INDEX 01 08:45:21
  TRACK 04 AUDIO
TITLE "Зеркало"
PERFORMER "Юрий Антонов"
    INDEX 01 11:31:39
  TRACK 05 AUDIO
TITLE "Я вспоминаю"
PERFORMER "Юрий Антонов"
    INDEX 01 15:13:57
FILE "2.flac" WAVE
  TRACK 06 AUDIO
TITLE "Двадцать лет спустя"
PERFORMER "Юрий Антонов"
    INDEX 01 00:00:00
  TRACK 07 AUDIO
TITLE "Не забывай"
PERFORMER "Юрий Антонов"
    INDEX 01 03:44:62
  TRACK 08 AUDIO
TITLE "Анастасия"
PERFORMER "Юрий Антонов"
    INDEX 01 07:40:63
  TRACK 09 AUDIO
TITLE "Золотая лестница"
PERFORMER "Юрий Антонов"
    INDEX 01 10:44:61
  TRACK 10 AUDIO
TITLE "Дорога к морю"
PERFORMER "Юрий Антонов"
    INDEX 01 13:37:21
  TRACK 11 AUDIO
TITLE "Крыша дома твоего"
PERFORMER "Юрий Антонов"
    INDEX 01 17:01:66
       

1 сторона

https://yadi.sk/mail/?hash=fmLayuBczU8GxtudZu6pqWgsq8WzMdTEHwevAt2sBv8=&uid=193190115

2 сторона

https://yadi.sk/mail/?hash=ojXDxIk+QQntTFz6KR5NNS9WKhjR8XAwAFAAvB3AcCo=&uid=193190115

==================================

FLAC+CUE (обе стороны пластинки):

https://yadi.sk/mail/?hash=rMshwvkfMfpysTMheXKigWc+/1RuHMIQAZIYfP4U23M=&uid=252251247

0

2

Поясню ребята автор данный оц обещал не захожить на этот ресур он слушает Админа муз. гр. вт идя у него на поводу ... Но он я думаю не откажется от своих слов счмиая себя поряд. человеком ... Саша Бери мои ссылки я для ребят заливаю
Так было Боря ???? млм я вру и ты готов сказать при всех что я украл у тебя

0


Вы здесь » Tutnet-fufla » Оцифровки ВИНИЛА » (24/96) Юрий Антонов - Крыша дома твоего‡(Записи 1979-1983 г) Lossles&