Tutnet-fufla

Объявление

Введите здесь ваше объявление.

Информация о пользователе

Привет, Гость! Войдите или зарегистрируйтесь.


Вы здесь » Tutnet-fufla » Шансон в форм. lossless » Глеб (Gleb) - Chansons Souterrai‡(WAV) lossless&


Глеб (Gleb) - Chansons Souterrai‡(WAV) lossless&

Сообщений 1 страница 2 из 2

1

16/44,1] Глеб (Gleb) - Chansons Souterraines (WAV) lossless

Глеб (Gleb) - Chansons Souterraines

Исполнитель: Глеб (Gleb)
Альбом: Chansons Souterraines
Оцифровка виниловой пластинки

Сторона 1

01. Мело, мело
02. Рано утром проснешься
03. Одесская песня
04. Ванинский порт
05. Колеса тоже не стоят
06. Учитель обществоведения
07. Пацанка

Сторона 2

01. Таганка
02. Цветет Советская земля
03. В том краю, где желтая крапива
04. Месяц морду полощет в луже
05. Ночька приближается
06. Ленинградская музыка
07. Песенька о поэтах

CUE:

Код:
REM GENRE "Shanson"
TITLE "Chansons Souterraines"
PERFORMER "Глеб (Gleb)"
FILE "Сторона 1.wav" WAVE
  TRACK 01 AUDIO
TITLE "Мело, мело"
PERFORMER "Глеб (Gleb)"
    INDEX 01 00:04:07
  TRACK 02 AUDIO
TITLE "Рано утром проснешься"
PERFORMER "Глеб (Gleb)"
    INDEX 01 03:01:28
  TRACK 03 AUDIO
TITLE "Одесская песня"
PERFORMER "Глеб (Gleb)"
    INDEX 01 04:03:55
  TRACK 04 AUDIO
TITLE "Ванинский порт"
PERFORMER "Глеб (Gleb)"
    INDEX 01 04:43:17
  TRACK 05 AUDIO
TITLE "Колеса тоже не стоят"
PERFORMER "Глеб (Gleb)"
    INDEX 01 07:15:32
  TRACK 06 AUDIO
TITLE "Учитель обществоведения"
PERFORMER "Глеб (Gleb)"
    INDEX 01 08:17:27
  TRACK 07 AUDIO
TITLE "Пацанка"
PERFORMER "Глеб (Gleb)"
    INDEX 01 10:05:40
FILE "Сторона 2.wav" WAVE
  TRACK 08 AUDIO
TITLE "Таганка"
PERFORMER "Глеб (Gleb)"
    INDEX 01 00:00:00
  TRACK 09 AUDIO
TITLE "Цветет Советская земля"
PERFORMER "Глеб (Gleb)"
    INDEX 01 02:55:54
  TRACK 10 AUDIO
TITLE "В том краю, где желтая крапива"
PERFORMER "Глеб (Gleb)"
    INDEX 01 04:26:12
  TRACK 11 AUDIO
TITLE "Месяц морду полощет в луже"
PERFORMER "Глеб (Gleb)"
    INDEX 01 06:58:46
  TRACK 12 AUDIO
TITLE "Ночька приближается"
PERFORMER "Глеб (Gleb)"
    INDEX 01 08:51:39
  TRACK 13 AUDIO
TITLE "Ленинградская музыка"
PERFORMER "Глеб (Gleb)"
    INDEX 01 10:57:64
  TRACK 14 AUDIO
TITLE "Песенька о поэтах"
PERFORMER "Глеб (Gleb)"
    INDEX 01 12:52:37


https://yadi.sk/d/fPNiNmYvNmkSM

0

2

Альбом приватизирован у спившигося придурка с вт сруля саломоновиа он не помнит кто ему давал запись . я помню Все благодарности - Полосач Спасибо вам

0


Вы здесь » Tutnet-fufla » Шансон в форм. lossless » Глеб (Gleb) - Chansons Souterrai‡(WAV) lossless&