Tutnet-fufla

Объявление

Введите здесь ваше объявление.

Информация о пользователе

Привет, Гость! Войдите или зарегистрируйтесь.


Вы здесь » Tutnet-fufla » Аркадий Северный Записи и концерты » (24/96) (М С) Аркадий Северный ‡Гитарный сборник (lossless)&


(24/96) (М С) Аркадий Северный ‡Гитарный сборник (lossless)&

Сообщений 1 страница 5 из 5

1

Альбом любезно предоставил Самозванец с вт Админ муз. гр. Сруль Саломонович .
Вся сетевая этика соблюдена .

(24/96) (М С) Аркадий Северный - Гитарный сборник (Помню, помню, помню я...) (lossless)

http://savepic.ru/11180510.jpg

Оцифровка Борис 63  с катушки Ильи.

Треклист:

01 Аркадий Северный - Помню, помню, помню я...
02 Аркадий Северный - Наверно, дом Румянцевых
03 Аркадий Северный - Давай по-Русски
04 Аркадий Северный - Цыгане шумною толпою...
05 Аркадий Северный - Не люби вора
06 Аркадий Северный - Помнишь, курносая?
07 Аркадий Северный - Вот канаю я на БАМ
08 Аркадий Северный - Жил-был хутор
09 Аркадий Северный - Где болота глухие
10 Аркадий Северный - Маргариточка-цветочек
11 Аркадий Северный - А полюби её, каналию...
12 Аркадий Северный - Жил один скрипач...
13 Аркадий Северный - На дворе трещал Рождественский мороз...
14 Аркадий Северный - Моё счастье, моё счастье...
15 Аркадий Северный - Цилиндром на солнце сверкая...
16 Аркадий Северный - Течёт речка по песочечку...
17 Аркадий Северный - Начало канкана...
18 Булат Окуджава - Вот так и ведется на нашем веку... (обрыв)

19 Аркадий Северный - Зашла на склад игрушек...
20 Аркадий Северный - Люблю пивную я...
21 Аркадий Северный - На пароходе из Анапы... (Я Шура)
22 Аркадий Северный - О Василии Гущинском...(Была весна...весна...)
23 Аркадий Северный - В саду на лавочке пел песню скворушка...
24 Аркадий Северный - Была весна, цвела сирень...
25 Аркадий Северный - Бедная, бедная, бедная я...
26 Аркадий Северный - Задумал-таки я братики жениться...
27 Аркадий Северный - Сядем братишка, споём мы застольную...
28 Аркадий Северный - Я смотрю на костёр догорающий...
29 Аркадий Северный - Люблю я водку, люблю я пиво...
30 Аркадий Северный - Большая страна Китай...
31 Аркадий Северный - Меж высоких хлебов...
32 Аркадий Северный - Пропою сейчас Вам про бутылку...
33 Аркадий Северный - В старом большом саду...

CUE:

Код:
REM GENRE "Shanson"
REM DATE 1970-71
REM COMMENT "Оцифровка - Борис 63"
TITLE "Помню, помню, помню я..."
PERFORMER "Аркадий Северный"
FILE "Гитарник 1.flac" WAVE
  TRACK 01 AUDIO
TITLE "Помню, помню, помню я..."
PERFORMER "Аркадий Северный"
    INDEX 01 00:00:24
  TRACK 02 AUDIO
TITLE "Наверно, дом Румянцевых"
PERFORMER "Аркадий Северный"
    INDEX 01 03:59:62
  TRACK 03 AUDIO
TITLE "Давай по-Русски"
PERFORMER "Аркадий Северный"
    INDEX 01 06:30:71
  TRACK 04 AUDIO
TITLE "Цыгане шумною толпою..."
PERFORMER "Аркадий Северный"
    INDEX 01 09:32:39
  TRACK 05 AUDIO
TITLE "Не люби вора"
PERFORMER "Аркадий Северный"
    INDEX 01 11:48:22
  TRACK 06 AUDIO
TITLE "Помнишь, курносая?"
PERFORMER "Аркадий Северный"
    INDEX 01 13:10:34
  TRACK 07 AUDIO
TITLE "Вот канаю я на БАМ"
PERFORMER "Аркадий Северный"
    INDEX 01 15:45:67
  TRACK 08 AUDIO
TITLE "Жил-был хутор"
PERFORMER "Аркадий Северный"
    INDEX 01 19:07:09
  TRACK 09 AUDIO
TITLE "Где болота глухие"
PERFORMER "Аркадий Северный"
    INDEX 01 22:26:56
  TRACK 10 AUDIO
TITLE "Маргариточка-цветочек"
PERFORMER "Аркадий Северный"
    INDEX 01 26:41:13
  TRACK 11 AUDIO
TITLE "А полюби её, каналию..."
PERFORMER "Аркадий Северный"
    INDEX 01 27:25:02
  TRACK 12 AUDIO
TITLE "Жил один скрипач..."
PERFORMER "Аркадий Северный"
    INDEX 01 27:54:40
  TRACK 13 AUDIO
TITLE "На дворе трещал Рождественский мороз..."
PERFORMER "Аркадий Северный"
    INDEX 01 30:45:34
  TRACK 14 AUDIO
TITLE "Моё счастье, моё счастье..."
PERFORMER "Аркадий Северный"
    INDEX 01 34:53:51
  TRACK 15 AUDIO
TITLE "Цилиндром на солнце сверкая..."
PERFORMER "Аркадий Северный"
    INDEX 01 35:55:71
  TRACK 16 AUDIO
TITLE "Течёт речка по песочечку..."
PERFORMER "Аркадий Северный"
    INDEX 01 39:55:21
  TRACK 17 AUDIO
TITLE "Начало канкана..."
PERFORMER "Аркадий Северный"
    INDEX 01 45:02:30
  TRACK 18 AUDIO
TITLE "Вот так и ведется на нашем веку... (обрыв)"
PERFORMER "Булат Окуджава"
    INDEX 01 45:49:26
FILE "Гитарник 2.flac" WAVE
  TRACK 19 AUDIO
TITLE "Зашла на склад игрушек..."
PERFORMER "Аркадий Северный"
    INDEX 01 00:00:00
  TRACK 20 AUDIO
TITLE "Люблю пивную я..."
PERFORMER "Аркадий Северный"
    INDEX 01 03:16:28
  TRACK 21 AUDIO
TITLE "На пароходе из Анапы... (Я Шура)"
PERFORMER "Аркадий Северный"
    INDEX 01 06:26:07
  TRACK 22 AUDIO
TITLE "О Василии Гущинском...(Была весна...весна...)"
PERFORMER "Аркадий Северный"
    INDEX 01 09:04:39
  TRACK 23 AUDIO
TITLE "В саду на лавочке пел песню скворушка..."
PERFORMER "Аркадий Северный"
    INDEX 01 15:39:06
  TRACK 24 AUDIO
TITLE "Была весна, цвела сирень..."
PERFORMER "Аркадий Северный"
    INDEX 01 19:24:04
  TRACK 25 AUDIO
TITLE "Бедная, бедная, бедная я..."
PERFORMER "Аркадий Северный"
    INDEX 01 25:07:49
  TRACK 26 AUDIO
TITLE "Задумал-таки я братики жениться..."
PERFORMER "Аркадий Северный"
    INDEX 01 26:55:17
  TRACK 27 AUDIO
TITLE "Сядем братишка, споём мы застольную..."
PERFORMER "Аркадий Северный"
    INDEX 01 29:40:49
  TRACK 28 AUDIO
TITLE "Я смотрю на костёр догорающий..."
PERFORMER "Аркадий Северный"
    INDEX 01 32:01:01
  TRACK 29 AUDIO
TITLE "Люблю я водку, люблю я пиво..."
PERFORMER "Аркадий Северный"
    INDEX 01 34:30:14
  TRACK 30 AUDIO
TITLE "Большая страна Китай..."
PERFORMER "Аркадий Северный"
    INDEX 01 36:21:57
  TRACK 31 AUDIO
TITLE "Меж высоких хлебов..."
PERFORMER "Аркадий Северный"
    INDEX 01 38:33:68
  TRACK 32 AUDIO
TITLE "Пропою сейчас Вам про бутылку..."
PERFORMER "Аркадий Северный"
    INDEX 01 42:44:17
  TRACK 33 AUDIO
TITLE "В старом большом саду..."
PERFORMER "Аркадий Северный"
    INDEX 01 45:19:53

Скачать FLAC+CUE:

https://yadi.sk/mail/?hash=YadMl1Tyh6Ep4sMskC4wXeDkemhYlpBY7j6QaQY/3Qg=&uid=252251247


Скачать FLAC (без CUE разметки):

https://yadi.sk/mail/?hash=azsY9Pm7No/kKunGs/WMv9VoARxDPD6MrwPXDcr82D4=&uid=193190115

https://yadi.sk/mail/?hash=4Wbmv4lMd9tXXnwPpEtZfVMkfeIhmzKmsib1/8AIoGw=&uid=193190115

0

2

Скачать FLAC+CUE:
https://yadi.sk/mail/?hash=YadMl1Tyh6Ep … =252251247

Скоро будет удалена со слов мити . - сруля саломоновича .

качайте от сюда кому инт.

https://yadi.sk/d/HlIQmUN33EiwGA

0

3

https://cloud.mail.ru/public/9Fnn/N3JhmheDb

0

4

http://s2.uploads.ru/RIg1s.png
Вся сетевая этика соблюдена .

0

5

0


Вы здесь » Tutnet-fufla » Аркадий Северный Записи и концерты » (24/96) (М С) Аркадий Северный ‡Гитарный сборник (lossless)&