Tatjana Iwanow ?– Tatjana. 1972 (Lossless) 24/96 Lossless

Tatjana Iwanow ?– Tatjana.Tatjana Iwanow Singt Russische Folklore Und Zigeunerlieder Татьяна Иванова поет русские и цыганские народные песни

http://savepic.ru/11181131.jpg

Format: Vinyl, LP
Country: Germany
Released: 1972
Genre: Folk, World, & Country
Style: Folk

Tracklist :

A1 Russische Volksweisen
A2 Nicht Der Wind Allain Beugt Die Zweige (Volkslied)
A3 Schnell Verweht Im Wind Der Zigerunerlied
A4 Nur Noch Diese Eine Nacht (Zigeunerlied)
A5 Kalinka (Volkslied)
B1 Zwei Gitarren (Zigeunerlied)
B2 Verweht (Volkslied)
B3 Zigeunerleben
B4 Tryn Trawa (Zigeunerlied)
B5 Die Kleine Gartentur (Zigeunerlied)
B6 Bit Moja Rama (Zigeunerlied)

Credits:

Arranged By – Bert Grund
Directed By – Bert Grund
Liner Notes – Wolfgang Franke
Producer – Willi Fruth
Voice – Tatjana Iwanow

https://yadi.sk/d/7KbTpPU45uyJg


REM GENRE FOLK
REM DATE 1972
REM COMMENT Оцифровка Борис 63
PERFORMER "Tatjana Iwanow – Tatjana"
TITLE "Tatjana Iwanow Singt Russische Folklore Und Zigeunerlieder "
FILE "Татьяна Иванова.flac" WAVE
  TRACK 01 AUDIO
TITLE "Russiche Volksweisen"
    INDEX 01 00:00:00
  TRACK 02 AUDIO
TITLE "Nich der Wind allein beugt die Zweige"
    INDEX 01 02:49:55
  TRACK 03 AUDIO
TITLE "Schnell verweht im Wind der Zigeuner Lied"
    INDEX 01 07:13:68
  TRACK 04 AUDIO
TITLE "Nur noch dies eine Nacht"
    INDEX 01 10:05:67
  TRACK 05 AUDIO
TITLE "Kalinka"
    INDEX 01 14:08:71
  TRACK 06 AUDIO
TITLE "Zwei Gitarren"
    INDEX 01 18:41:24
  TRACK 07 AUDIO
TITLE "Verweht"
    INDEX 01 22:12:41
  TRACK 08 AUDIO
TITLE "Zigeunerieben"
    INDEX 01 25:20:60
  TRACK 09 AUDIO
TITLE "Tryn trawa"
    INDEX 01 28:33:64
  TRACK 10 AUDIO
TITLE "Die kleine Gartentur"
    INDEX 01 32:04:25
  TRACK 11 AUDIO
TITLE " Bit moja rama"
    INDEX 01 37:03:43
  TRACK 12 AUDIO
TITLE "Unknown"
    INDEX 01 40:18:66