Tutnet-fufla

Объявление

Введите здесь ваше объявление.

Информация о пользователе

Привет, Гость! Войдите или зарегистрируйтесь.


Вы здесь » Tutnet-fufla » Шансон альбомы в mp3 » Роман Булгачев - Одесские песни‡(1989) Lossless, мп3&


Роман Булгачев - Одесские песни‡(1989) Lossless, мп3&

Сообщений 1 страница 4 из 4

1

Исполнитель: Роман Булгачев           
Альбом: Одесские песни 
Год выпуска: 1989
Формат: MP3
Жанр: шансон
Качество звука: 320
Размер: 81

Содержание:

01 - Вы небыли в Одессе.mp3 (6.9MB)
02 - У мента Аркадия.mp3 (8.4MB)
03 - Фраер.mp3 (8.6MB)
04 - Девка прямо на расхват.mp3 (6.3MB)
05 - А у моей любовник.mp3 (4.7MB)
06 - Журавли.mp3 (10.6MB)
07 - Депутат народный.mp3 (6.2MB)
08 - Колесики.mp3 (9.7MB)
09 - Обидно веру потерять.mp3 (10.0MB)
10 - Ушедших дней не возвратить.mp3 (7.3MB)

https://yadi.sk/d/XVeMR9pwuuTiS

0

2

Все благодарности - Борис 63  с вт
Данную запипсь любезно предоставил самозванец с вт сруль саломонович
он же - дмитрий .называет себя админ. муз. гр.

(24/96) Роман Булгачев - Одесские песни (1989) Lossless

Треклист:

01 Роман Булгачёв - Вы не были в Одессе
02 Роман Булгачёв - У мента Аркадия
03 Роман Булгачёв - Он фраер
04 Роман Булгачёв - Пышка (Девка прямо на расхват)
05 Роман Булгачёв - А у ней любовник – КГБ полковник
06 Роман Булгачёв - Журавли
07 Роман Булгачёв - Плюрализм (Депутат народный)
08 Роман Булгачёв - Колесики
09 Роман Булгачёв - Обидно веру потерять
10 Роман Булгачёв - Пусть музыка звучит (Ушедших дней не возвратить)

11 Евгений Шахрай - Слепые дожди
12 Владимир Куклин - Синяя трава
13 Владимир Куклин - Белая стая

CUE:

Код:
REM GENRE "Shanson"
REM DATE 1989
REM COMMENT "Оцифровка - Борис 63"
TITLE "Одесские песни"
PERFORMER "Роман Булгачёв"
FILE "Булгачёв.flac" WAVE
  TRACK 01 AUDIO
TITLE "Вы не были в Одессе"
PERFORMER "Роман Булгачёв"
    INDEX 01 00:00:00
  TRACK 02 AUDIO
TITLE "У мента Аркадия"
PERFORMER "Роман Булгачёв"
    INDEX 01 02:55:36
  TRACK 03 AUDIO
TITLE "Он фраер"
PERFORMER "Роман Булгачёв"
    INDEX 01 06:32:64
  TRACK 04 AUDIO
TITLE "Пышка (Девка прямо на расхват)"
PERFORMER "Роман Булгачёв"
    INDEX 01 10:13:50
  TRACK 05 AUDIO
TITLE "А у ней любовник – КГБ полковник"
PERFORMER "Роман Булгачёв"
    INDEX 01 12:54:24
  TRACK 06 AUDIO
TITLE "Журавли"
PERFORMER "Роман Булгачёв"
    INDEX 01 14:54:41
  TRACK 07 AUDIO
TITLE "Плюрализм (Депутат народный)"
PERFORMER "Роман Булгачёв"
    INDEX 01 19:30:23
  TRACK 08 AUDIO
TITLE "Колесики"
PERFORMER "Роман Булгачёв"
    INDEX 01 22:10:44
  TRACK 09 AUDIO
TITLE "Обидно веру потерять"
PERFORMER "Роман Булгачёв"
    INDEX 01 26:25:40
  TRACK 10 AUDIO
TITLE "Пусть музыка звучит (Ушедших дней не возвратить)"
PERFORMER "Роман Булгачёв"
    INDEX 01 30:44:03
  TRACK 11 AUDIO
TITLE "Слепые дожди"
PERFORMER "Евгений Шахрай"
    INDEX 01 33:50:66
  TRACK 12 AUDIO
TITLE "Синяя трава"
PERFORMER "Владимир Куклин"
    INDEX 01 37:01:64
  TRACK 13 AUDIO
TITLE "Белая стая"
PERFORMER "Владимир Куклин"
    INDEX 01 40:05:46

Скачать FLAC+CUE:

https://yadi.sk/mail/?hash=7pAI6sWepv4WqsknxlJbIiXzZwhwtr/syDonegARdMw=&uid=252251247

http://savepic.ru/12933892.png

0

3

http://savepic.ru/12916484.png

http://savepic.ru/12939012.jpg

0

4

http://savepic.ru/12925702.png

0


Вы здесь » Tutnet-fufla » Шансон альбомы в mp3 » Роман Булгачев - Одесские песни‡(1989) Lossless, мп3&