Это интересно Скрыть

Tutnet-fufla

Объявление

Информация о пользователе

Привет, Гость! Войдите или зарегистрируйтесь.


Вы здесь » Tutnet-fufla » Сборники шансон mp3 . Lossless » VA-В русском ресторане-Выпуск №1 & №2‡(2001)Lossless&


VA-В русском ресторане-Выпуск №1 & №2‡(2001)Lossless&

Сообщений 1 страница 2 из 2

1

http://savepic.ru/11524804.png

http://savepic.ru/11481796.jpg

VA-В русском ресторане-Выпуск №1 & №2(2001)Lossless

Аудио: FLAC (image+.cue+.log)
Качество звука: 1й диск 486 kbps. 2й диск 475 kbps
Размер: 466 МБ
Rar добавил 3% восстановления
Продолжительность: 01:58:25
Исполнитель(и): Разные исполнители
Издатель/ Изготовитель: Пролог мьюзик 2001 г.
Формат: AudioCD
Язык: Русский
Благодарности:Анчоус2506

О музыке: Предлагаемые вашему вниманию диски вызовут добрую улыбку у любителей
старой эстрады, а молодежи даст возможность познакомиться с русскими песнями 20-40-х годов.
Оригинальные записи 1920х-1940х годов в исполнении русских эмигрантов.
Октябрьская революция 1917 года и последовавшая за ней Гражданская война разбросали сотни
тысяч россиян по всему миру. Кто сознательно уехал из страны,
не приняв новой власти, другие попросту оказались на территориях, отторгнутых
у России по Брестскому договору. Этих людей принято называть эмигрантами "первой волны",
в которую попали и многие артисты. С ними разлетелись по свету русские мелодии и песни.
Практически единственными местами для выступлений были рестораны, бары и кабачки.
В ресторанах пели Александр Вертинский и Юрий Морфесси, Алла Баянова и Петр Лещенко.
Зазорным это не считалось. Напротив — именно ресторан зачастую оказывался единственным
культурным местом, объединявших бывших соотечественников в самых разных уголках земного шара:
от Харбина и Стамбула до Парижа и Сан-Франциско.

CD1
01. К. Сокольский - Когда друзья встречаются
02. Люся и Николай Донцовы - Люблю я пиво, люблю я водку
03. Ю. Морфесси - Эй, ямщик, гони-ка к яру
04. П. Лещенко - Рюмка водки
05. И. Кремер - Мадам Лулу
06. Д. Дольский - Вот солдаты идут
07. Л. Шулаковский - Зачем любить
08. В. Неплюев - Ваня-гармонист
09. Хор братьев Зайцевых - Музыкальная сценка
10. Ю. Морфесси - Быстры как волны
11. К. Сокольский - Степкин чубчик
12. И. Кремер - Черный Том
13. Л. Шулаковский - Колокольчики-бубенчики
14. П. Лещенко - Трошка
15. Квартет Ларионовых - Прошли золотые денечки
16. М. Вавич - Яблочко
17. Г. Каренина - Стаканчики граненые
18. М. Качина - Новые бублички
19. Люся и Николай Донцовы - Любовь разбойника
20. Ю. Морфесси - Прощай ты, 'Новая деревня'

Exact Audio Copy V0.99 prebeta 4 from 23. January 2008

EAC extraction logfile from 13. September 2009, 17:01

Various / В русском ресторане. Выпуск 1

Used drive : MATSHITADVD-RAM UJ-861H Adapter: 1 ID: 0

Read mode : Secure
Utilize accurate stream : Yes
Defeat audio cache : Yes
Make use of C2 pointers : No

Read offset correction : 102
Overread into Lead-In and Lead-Out : No
Fill up missing offset samples with silence : Yes
Delete leading and trailing silent blocks : No
Null samples used in CRC calculations : Yes
Used interface : Native Win32 interface for Win NT & 2000

Used output format : User Defined Encoder
Selected bitrate : 768 kBit/s
Quality : High
Add ID3 tag : No
Command line compressor : C:\Program Files\Exact Audio Copy\Flac\flac.exe
Additional command line options : -V -8 -T "artist=%a" -T "title=%t" -T "album=%g" -T "date=%y" -T "tracknumber=%n" -T "genre=%m" %s

TOC of the extracted CD

Track | Start | Length | Start sector | End sector
---------------------------------------------------------
1 | 0:00.00 | 3:13.01 | 0 | 14475
2 | 3:13.01 | 3:15.36 | 14476 | 29136
3 | 6:28.37 | 2:44.60 | 29137 | 41496
4 | 9:13.22 | 2:55.14 | 41497 | 54635
5 | 12:08.36 | 3:30.45 | 54636 | 70430
6 | 15:39.06 | 3:11.27 | 70431 | 84782
7 | 18:50.33 | 3:03.55 | 84783 | 98562
8 | 21:54.13 | 2:47.56 | 98563 | 111143
9 | 24:41.69 | 3:02.17 | 111144 | 124810
10 | 27:44.11 | 2:36.03 | 124811 | 136513
11 | 30:20.14 | 2:50.73 | 136514 | 149336
12 | 33:11.12 | 3:22.03 | 149337 | 164489
13 | 36:33.15 | 2:06.74 | 164490 | 174013
14 | 38:40.14 | 3:21.19 | 174014 | 189107
15 | 42:01.33 | 3:17.12 | 189108 | 203894
16 | 45:18.45 | 2:47.45 | 203895 | 216464
17 | 48:06.15 | 2:29.59 | 216465 | 227698
18 | 50:35.74 | 2:52.07 | 227699 | 240605
19 | 53:28.06 | 3:10.66 | 240606 | 254921
20 | 56:38.72 | 2:20.24 | 254922 | 265445

Range status and errors

Selected range

Filename G:\Музыка\В русском ресторане. Выпуск 1\Various - В русском ресторане. Выпуск 1.wav

Peak level 100.0 %
Range quality 100.0 %
Test CRC 8D6ECCB2
Copy CRC 8D6ECCB2
Copy OK

No errors occurred

AccurateRip summary

Track 1 not present in database
Track 2 not present in database
Track 3 not present in database
Track 4 not present in database
Track 5 not present in database
Track 6 not present in database
Track 7 not present in database
Track 8 not present in database
Track 9 not present in database
Track 10 not present in database
Track 11 not present in database
Track 12 not present in database
Track 13 not present in database
Track 14 not present in database
Track 15 not present in database
Track 16 not present in database
Track 17 not present in database
Track 18 not present in database
Track 19 not present in database
Track 20 not present in database

None of the tracks are present in the AccurateRip database

CD2
01. Ф. Шаляпин - Сомнение
02. А. Вертинский - Снился мне сад
03. И. Кремер - Звезда
04. Ю. Морфесси - Везде и всегда за тобою
05. О. Каменская - Плачет рояль
06. Н. Мельников - Я помню день
07. Г. Каренина - Вернись
08. С. Данилевский - Душа моя
09. Е. Горват - Тебя любить
10. М. Бравин - Ах, зачем ты меня целовала
11. А. Кармелинский - Арлекинада
12. И. Кремер - Россия
13. Ю. Морфесси - Пара гнедых
14. Л. Стародубская - Любовь прошла
15. Н. Мельников - Лебединая песнь
16. О. Каменская - Вы просите песен
17. А. Вертинский - О, жизнь моя, не уходи
18. Ф. Шаляпин - Элегия

Exact Audio Copy V0.99 prebeta 4 from 23. January 2008

EAC extraction logfile from 30. August 2009, 16:03

Various artists / Въ русском ресторане. Романсы

Used drive : MATSHITADVD-RAM UJ-861H Adapter: 1 ID: 0

Read mode : Secure
Utilize accurate stream : Yes
Defeat audio cache : Yes
Make use of C2 pointers : No

Read offset correction : 102
Overread into Lead-In and Lead-Out : No
Fill up missing offset samples with silence : Yes
Delete leading and trailing silent blocks : No
Null samples used in CRC calculations : Yes
Used interface : Native Win32 interface for Win NT & 2000

Used output format : User Defined Encoder
Selected bitrate : 768 kBit/s
Quality : High
Add ID3 tag : No
Command line compressor : C:\Program Files\Exact Audio Copy\Flac\flac.exe
Additional command line options : -V -8 -T "artist=%a" -T "title=%t" -T "album=%g" -T "date=%y" -T "tracknumber=%n" -T "genre=%m" %s

TOC of the extracted CD

Track | Start | Length | Start sector | End sector
---------------------------------------------------------
1 | 0:00.00 | 4:35.47 | 0 | 20671
2 | 4:35.47 | 3:19.47 | 20672 | 35643
3 | 7:55.19 | 3:24.65 | 35644 | 51008
4 | 11:20.09 | 3:05.18 | 51009 | 64901
5 | 14:25.27 | 3:09.36 | 64902 | 79112
6 | 17:34.63 | 3:47.44 | 79113 | 96181
7 | 21:22.32 | 2:50.23 | 96182 | 108954
8 | 24:12.55 | 2:54.51 | 108955 | 122055
9 | 27:07.31 | 3:12.65 | 122056 | 136520
10 | 30:20.21 | 3:12.55 | 136521 | 150975
11 | 33:33.01 | 3:27.41 | 150976 | 166541
12 | 37:00.42 | 3:10.43 | 166542 | 180834
13 | 40:11.10 | 2:49.74 | 180835 | 193583
14 | 43:01.09 | 3:04.51 | 193584 | 207434
15 | 46:05.60 | 2:47.09 | 207435 | 219968
16 | 48:52.69 | 3:23.02 | 219969 | 235195
17 | 52:15.71 | 2:59.14 | 235196 | 248634
18 | 55:15.10 | 4:10.34 | 248635 | 267418

Range status and errors

Selected range

Filename G:\Музыка\В русском ресторане. Романсы\Various artists - Въ русском ресторане. Романсы.wav

Peak level 99.2 %
Range quality 100.0 %
Test CRC 51F2D1A4
Copy CRC 51F2D1A4
Copy OK

No errors occurred

AccurateRip summary

Track 1 not present in database
Track 2 not present in database
Track 3 not present in database
Track 4 not present in database
Track 5 not present in database
Track 6 not present in database
Track 7 not present in database
Track 8 not present in database
Track 9 not present in database
Track 10 not present in database
Track 11 not present in database
Track 12 not present in database
Track 13 not present in database
Track 14 not present in database
Track 15 not present in database
Track 16 not present in database
Track 17 not present in database
Track 18 not present in database

None of the tracks are present in the AccurateRip database

https://yadi.sk/mail/?hash=3sTuW37hKoppLcS3oStCvGK9BkbaaGIFUiXBAJhXIrA=

https://yadi.sk/mail/?hash=42NVwfNWfTqT0E4UqQxSMSrDiOGHdRivv8McSqEAcfU=

0

2

Ребята я поясню один момент... я оячень много оскорблял раз одного мод. с вт потом он просто ушёл с вт сняв свои полномочия
Это его ссылки чтоб не говорили что я что то украл. Может быть я и не прав был оскорбляя его но это личное и я готов с ним поговорить если он сочтёт нужным зайти сюда . Но не я начал хамить . поверьте мне на слово. Ну не станем ворошить это гов...о Бог он всех рассудит
Я извинюсь за свой мат в его адрес .. и уверен можно было решить все вопросы по другому . .. Жень Извини... .

0


Вы здесь » Tutnet-fufla » Сборники шансон mp3 . Lossless » VA-В русском ресторане-Выпуск №1 & №2‡(2001)Lossless&