Tutnet-fufla

Объявление

Введите здесь ваше объявление.

Информация о пользователе

Привет, Гость! Войдите или зарегистрируйтесь.


Вы здесь » Tutnet-fufla » Аркадий Северный Записи и концерты » Аркадий Северный - БОЖЬЯ ОБИТЕЛЬ‡(1979) (24/96) Lossless&


Аркадий Северный - БОЖЬЯ ОБИТЕЛЬ‡(1979) (24/96) Lossless&

Сообщений 1 страница 32 из 32

1

Данную запись любезно предоставил Админ. муз вт сруль саломонович

Аркадий Северный - БОЖЬЯ ОБИТЕЛЬ (1979) (24/96) Lossless

Оцифровка с катушки из личной коллекции
Борис 63
Лента очень старая - ТАСМА 1979 года
удивительно - но не пищала!
Записано очень давно на Ухер роял де люкс!

Код:
REM GENRE "Блатняк"
REM DATE 1979
REM COMMENT "Оцифровка - Борис 63"
TITLE "С анс. Божья Обитель"
PERFORMER "Аркадий Северный"
FILE "1 ст .flac" WAVE
  TRACK 01 AUDIO
TITLE "Устав от шума и суеты..."
PERFORMER "Аркадий Северный"
    INDEX 01 00:02:30
  TRACK 02 AUDIO
TITLE "Расскажи мой милый друг ты мне..."
PERFORMER "Аркадий Северный"
    INDEX 01 03:06:25
  TRACK 03 AUDIO
TITLE "В твоём курятнике я был отнюдь не первый..."
PERFORMER "Аркадий Северный"
    INDEX 01 08:54:51
  TRACK 04 AUDIO
TITLE "Говорят, что нет красивей... (Г.Яновский)"
PERFORMER "Аркадий Северный"
    INDEX 01 14:40:46
  TRACK 05 AUDIO
TITLE "Я всё чаще вижу над чащей..."
PERFORMER "Аркадий Северный"
    INDEX 01 17:11:45
  TRACK 06 AUDIO
TITLE "А зохен вэй, товарищи бояре..."
PERFORMER "Аркадий Северный"
    INDEX 01 20:51:01
  TRACK 07 AUDIO
TITLE "Вьюжится от холода ночь..."
PERFORMER "Аркадий Северный"
    INDEX 01 25:25:15
  TRACK 08 AUDIO
TITLE "Постой паровоз, не стучите колёса... (А.Северный и Н.Резанов)"
PERFORMER "Аркадий Северный"
    INDEX 01 30:50:71
  TRACK 09 AUDIO
TITLE "К василькам припав губами..."
PERFORMER "Аркадий Северный"
    INDEX 01 36:51:18
  TRACK 10 AUDIO
TITLE "Бутылка вина"
PERFORMER "Аркадий Северный"
    INDEX 01 40:53:37
FILE "2 ст .flac" WAVE
  TRACK 11 AUDIO
TITLE "Вот по-французски женщины - бабьё... (Н.Резанов)"
PERFORMER "Аркадий Северный"
    INDEX 01 00:02:20
  TRACK 12 AUDIO
TITLE "Отступали войска по степи..."
PERFORMER "Аркадий Северный"
    INDEX 01 05:22:55
  TRACK 13 AUDIO
TITLE "Судно моё, как всегда, в движении..."
PERFORMER "Аркадий Северный"
    INDEX 01 10:36:14
  TRACK 14 AUDIO
TITLE "В мире любят, ревнуют и даже лгут..."
PERFORMER "Аркадий Северный"
    INDEX 01 15:35:71
  TRACK 15 AUDIO
TITLE "Пора-пора-порадуемся на своем веку... (Г.Яновский)"
PERFORMER "Аркадий Северный"
    INDEX 01 18:38:05
  TRACK 16 AUDIO
TITLE "Я грузин аль армянин - без копейка денег..."
PERFORMER "Аркадий Северный"
    INDEX 01 20:51:29
  TRACK 17 AUDIO
TITLE "Даже берег лазурного моря..."
PERFORMER "Аркадий Северный"
    INDEX 01 24:08:07
  TRACK 18 AUDIO
TITLE "Не надо о любви... (Н.Резанов)"
PERFORMER "Аркадий Северный"
    INDEX 01 28:44:01
  TRACK 19 AUDIO
TITLE "Вновь под ногами шорох листьев... (Н.Резанов)"
PERFORMER "Аркадий Северный"
    INDEX 01 32:41:14
  TRACK 20 AUDIO
TITLE "Синее, зелёное, красное, лиловое..."
PERFORMER "Аркадий Северный"
    INDEX 01 35:07:35
  TRACK 21 AUDIO
TITLE "Ты уехала на далекий срок..."
PERFORMER "Аркадий Северный"
    INDEX 01 38:23:67
  TRACK 22 AUDIO
TITLE "В Одессе раз в кино...(обрыв)"
PERFORMER "Аркадий Северный"
    INDEX 01 41:44:24

первая сторона

https://yadi.sk/d/vO8Ioa6A9RN6a

вторая сторона

https://yadi.sk/d/KRr7pgn69RaQK

От этого маг я отказываюсь .. Ручки не красивые и огоньки не горят .
Боря Димуле подари .

http://savepic.ru/11537089.jpg

0

2

Ручки не красивые и огоньки не горят


Неправда,всё красивое  и ручки и лампоЦки горят.
Это самый красивый мафон ,усех времён и народов.

0

3

А вот качество выложенного концерта.................желает лучшего....

0

4

#p25865,залётный написал(а):

Неправда

Ну извините тогда я напишу Что приму в дар . т.к за новый Ростов меня кинул димуля

0

5

Этот маг очень дорогой ,вряд ли  кто то сподобится  подарить его.

0

6

Посмотрел,за новый просят 250 000 руб . или 4000 $

0

7

#p25868,залётный написал(а):

кто то сподобится  подарить его.

Вот взяли и огорчили меня ... Пойду в магазин ....

0

8

Пойду в магазин ....


И это правильно,вы уже дома или ещё в бункере???

0

9

#p25871,залётный написал(а):

И это правильно,вы уже дома или ещё в бункере???

Бункер глубоко вот потихоньку поднимаюсь .... Пора ....

0

10

Вот дам ссылку ..... и предлогаю 50 дол. за трек ....
но если гов.ю..о мне 150 обратно ...

http://www.vsetutonline.com/forum/showt … hp?t=88862

0

11

:tomato:

0

12

но если гов.ю..о мне 150 обратно ...

А кто будет оценивать качество и у кого получить 50 $ ?

0

13

50 дам я если кач трека на вт сооотв. оценивать будут тут все ... в одной теме
чтоб все понимали что в привате для избраных

http://savepic.ru/11562724.png

Это не всё .... Если Мытищинские скажут тут при всех что у них хуже я куплю всю запись и выставлю тут

0

14

Чего там оценивать,с кассеты и то лучше,держать такое в привате,это себя не уважать.
Это моё личное мнение.

0

15

#p25877,Mytishchi написал(а):

Mytishchi
Гость

Так почемуц люди не могут слушать это ???? Когда там кач . нет ... Пусть их админ даст все скрины по каждому треку ...
Мы не ругаемся а спорим и общаемся ... Во как красиво сказал...

0

16

#p25877,Mytishchi написал(а):

держать такое в привате,это себя не уважать.

А они разве себя уважают? Вот, только что смотрю - Первый Одесский разместили. Уж, догадываюсь, что там... :crazyfun:

0

17

Когда там кач . нет ...


Ну это у них надо спрашивать,мы тут не при чём.
Тему можно прикрыть,ничего путного с этого не получится.

0

18

Щас первый одесский они зальют с орегинала наверно или первой копии

http://savepic.ru/11558630.png

0

19

#p25880,Mytishchi написал(а):

Тему можно прикрыть,ничего путного с этого не получится.

Ну нет слов так красиво и я бы не написал бы

0

20

#p25881,Aleksandr написал(а):

они зальют с орегинала наверно или первой копии

Скорее всего не с первой, а со сто пятидесятой.

0

21

#p25884,Консул написал(а):

Скорее всего не с первой, а со сто пятидесятой.


Во с орег. Аж стопки падают в серванте ...............В продаже у сруля саломоновича . Только избраные могут слушать

http://savepic.ru/12914836.jpg

0

22

димуля один трек дай за 50 баксов ..... будет гов... вернёшь 150

http://www.vsetutonline.com/forum/showt … hp?t=88872

................................

плясните пож мне тут .. вот эту фразу как
понять

Звук интересный - спасибо. Чуть не полный

что такое полный звук

0

23

Не надо грустить. Слушайте.
Аркадий Северный - Не надо грустить, господа офицеры....wav
www111.zippyshare.com/v/AyHxodub/file.html

0

24

#p32923,12345 написал(а):

Не надо грустить

Здравствуйте грусти нет одни огорчения я не могу скачать с этого обм. может кто перезальёт
Вам Спасибо ...

0

25

Не надо грустить. Слушайте.
Аркадий Северный - Не надо грустить, господа офицеры....wav
www111.zippyshare.com/v/AyHxodub/file.html


  качественный звук ,          Большое спасибо  Вам!!!


ссылка на другой обменник

             ://cloud.mail.ru/public/E1rn/hMuMYGCjX

0

26

у меня просьба к этому щедрому человеку,
нельзя ли скинуть одну песенку в таком же качестве
"Сладка ягода  в лес поманит..."  только не с записи с Обертоном, а вот этот вариант
://cloud.mail.ru/public/BmPV/qXj4zqPdT

https://cloud.mail.ru/public/E1rn/hMuMYGCjX

если нет , то нет  .
Всё понимаю.  :dontknow:

0

27

только не с записи с Обертоном, а вот этот вариант


С Химика.

0

28

нет не химик. первый концерт со Светофором , где на рояле Смирнов аккомпанирует

0

29

12345
Гость
Спасибо

0

30

первый концерт со Светофором , где на рояле Смирнов аккомпанирует


Отправил по адресу.....

0

31

#p33042,сладка ягода написал(а):

Отправил по адресу.....

а тут что люди рожей не выли или им это нельзя послушать тогда вопрос напрашивается только один . ну вы то сразу догадались наверно какой ...

0

32

в продаже на вт у спившегося придупка  сруля саломоновича

(24/96) Аркадием Северным с Ансамблем "Божья Обитель" (1979) (lossless)

Попробовал с еще одной катушки

Тестирование 77-ого Акая

ссылка
Скрытый текст (только для групп: Супер-модераторы :: 5, Администраторы :: 6, Модераторы :: 7, Команда :: 9, Сестрёнка :: 10):
У вас нет прав чтобы видеть скрытый текст, содержащейся здесь.

0


Вы здесь » Tutnet-fufla » Аркадий Северный Записи и концерты » Аркадий Северный - БОЖЬЯ ОБИТЕЛЬ‡(1979) (24/96) Lossless&