Это интересно Скрыть

Tutnet-fufla

Объявление

Информация о пользователе

Привет, Гость! Войдите или зарегистрируйтесь.


Вы здесь » Tutnet-fufla » Русская муз. Поп.дэнс.Ретро.фольк. » Суровый Февраль - Самые Лучшие Песни‡ lossless&


Суровый Февраль - Самые Лучшие Песни‡ lossless&

Сообщений 1 страница 2 из 2

1

ВСЕ БЛАГОДАРНОСТИ - Jabba_Ltd (rutracker.org)

Суровый Февраль - Самые Лучшие Песни!
Жанр: PopMusic
Год выпуска диска: 2002
Производитель диска: Германия
Аудио кодек: FLAC
Тип рипа: image+.cue
Битрейт аудио: lossless
Продолжительность: 01:16:41
Официальный сайт: http://www.surfev.narod.ru/
Все сканы с дисков в раздаче присутствуют

Трэклист:

01. Ветер Осенний [0:04:17.63]
02. Милая Мадам [0:04:19.27]
03. Сирота [0:05:51.52]
04. Чудесное Утро [0:04:55.12]
05. Ты Мне Не Нужна [0:04:33.51]
06. Вернись [0:04:52.42]
07. Мне Больше Не Нужно [0:04:16.21]
08. Голубые Глаза [0:03:55.01]
09. Побудь Со Мной [0:03:16.00]
10. Мадмуазель [0:04:36.33]
11. Вот И Все [0:04:29.50]
12. Сладкий Сон [0:05:29.53]
13. Я Мечтаю Только О Тебе [0:04:36.13]
14. Выпускной [0:05:26.03]
15. Разлука [0:04:11.51]
16. Не Нужна Мне Твоя Любовь [0:03:56.71]
17. Все Смогу [0:03:37.09]

Скрытый текст:

Для просмотра скрытого текста - войдите или зарегистрируйтесь.

0

2

Exact Audio Copy V0.99 prebeta 4 from 23. January 2008

Отчёт EAC об извлечении, выполненном 1. мая 2009, 2:49

Суровый Февраль / Самые Лучшие Песни

Дисковод: ASUS    CRW-5232AS   Adapter: 6  ID: 0

Режим чтения                 : Достоверность
Использование точного потока : Да
Отключение кэша аудио        : Да
Использование указателей C2  : Нет

Коррекция смещения при чтении                     : 6
Способность читать области Lead-in и Lead-out     : Нет
Заполнение пропущенных сэмплов тишиной            : Да
Удаление блоков с тишиной в начале и конце        : Нет
При вычислениях CRC использовались нулевые сэмплы : Да
Интерфейс                                         : Встроенный Win32-интерфейс для Win NT/2000

Выходной формат : Внутренние WAV-операции
Формат сэмплов  : 44.100 Гц; 16 бит; стерео

TOC извлечённого CD

     Трек |   Старт  | Длительность | Начальный сектор | Конечный сектор
    ---------------------------------------------------------------------
       1  |  0:00.00 |    4:17.63   |           0      |      19337     
       2  |  4:17.63 |    4:19.27   |       19338      |      38789     
       3  |  8:37.15 |    5:51.52   |       38790      |      65166     
       4  | 14:28.67 |    4:55.12   |       65167      |      87303     
       5  | 19:24.04 |    4:33.51   |       87304      |     107829     
       6  | 23:57.55 |    4:52.42   |      107830      |     129771     
       7  | 28:50.22 |    4:16.21   |      129772      |     148992     
       8  | 33:06.43 |    3:55.01   |      148993      |     166618     
       9  | 37:01.44 |    3:16.00   |      166619      |     181318     
      10  | 40:17.44 |    4:36.33   |      181319      |     202051     
      11  | 44:54.02 |    4:29.50   |      202052      |     222276     
      12  | 49:23.52 |    5:29.53   |      222277      |     247004     
      13  | 54:53.30 |    4:36.13   |      247005      |     267717     
      14  | 59:29.43 |    5:26.03   |      267718      |     292170     
      15  | 64:55.46 |    4:11.51   |      292171      |     311046     
      16  | 69:07.22 |    3:56.71   |      311047      |     328817     
      17  | 73:04.18 |    3:37.09   |      328818      |     345101     

Характеристики диапазона извлечения и сообщения об ошибках

Выбранный диапазон

     Имя файла E:\Files\Music\Суровый Февраль - Самые Лучшие Песни.wav

     Пиковый уровень 97.5 %
     Качество диапазона 100.0 %
     CRC теста FC4B32FE
     CRC копии FC4B32FE
     Копирование... OK

Ошибок не произошло

Конец отчёта

0


Вы здесь » Tutnet-fufla » Русская муз. Поп.дэнс.Ретро.фольк. » Суровый Февраль - Самые Лучшие Песни‡ lossless&