Это интересно Скрыть

Tutnet-fufla

Объявление

Информация о пользователе

Привет, Гость! Войдите или зарегистрируйтесь.


Вы здесь » Tutnet-fufla » Шансон в форм. lossless » [24/96] Михаил Звездинский ‡Не падайте духом(1992) &


[24/96] Михаил Звездинский ‡Не падайте духом(1992) &

Сообщений 1 страница 4 из 4

1

[24/96] Михаил Звездинский - Не падайте духом... (1992) Lossless

Диск для предоставлен на вт - Игорем
оц Борис 63

Код:
REM GENRE "Shanson"
REM DATE 1992
REM COMMENT "Оцифровка - Борис 63"
TITLE "Не падайте духом..."
PERFORMER "Михаил Звездинский"
FILE "Михаил Звездинский - не падайте духом - (винил)1.flac" WAVE
  TRACK 01 AUDIO
TITLE "Дворянский гимн"
PERFORMER "Михаил Звездинский"
    INDEX 01 00:07:44
  TRACK 02 AUDIO
TITLE "Талисман"
PERFORMER "Михаил Звездинский"
    INDEX 01 04:51:29
  TRACK 03 AUDIO
TITLE "За кoрдоном Россия!"
PERFORMER "Михаил Звездинский"
    INDEX 01 08:25:18
  TRACK 04 AUDIO
TITLE "Поручик Голицын"
PERFORMER "Михаил Звездинский"
    INDEX 01 11:48:42
  TRACK 05 AUDIO
TITLE "Кончен бал"
PERFORMER "Михаил Звездинский"
    INDEX 01 16:51:26
  TRACK 06 AUDIO
TITLE "Зачем Вам это знать?"
PERFORMER "Михаил Звездинский"
    INDEX 01 20:23:04
FILE "Михаил Звездинский - не падайте духом - (винил)2.flac" WAVE
  TRACK 07 AUDIO
TITLE "Бонжур, мадам"
PERFORMER "Михаил Звездинский"
    INDEX 01 00:05:12
  TRACK 08 AUDIO
TITLE "Увяли розы"
PERFORMER "Михаил Звездинский"
    INDEX 01 02:59:65
  TRACK 09 AUDIO
TITLE "Черная кошка"
PERFORMER "Михаил Звездинский"
    INDEX 01 06:01:38
  TRACK 10 AUDIO
TITLE "Мальчики-налётчики"
PERFORMER "Михаил Звездинский"
    INDEX 01 08:32:06
  TRACK 11 AUDIO
TITLE "Ни тюрьма, ни лишения"
PERFORMER "Михаил Звездинский"
    INDEX 01 12:10:27
  TRACK 12 AUDIO
TITLE "Свободная звезда"
PERFORMER "Михаил Звездинский"
    INDEX 01 16:13:15

flac

https://yadi.sk/d/6QPdWPF9HskJv

мп3

https://yadi.sk/d/K5qeTRYhHsm38

0

2

http://www.pixic.ru/i/Y0D1Z3k3c7R1M252.png
http://www.pixic.ru/i/j0A1U3236731i2F3.png
http://www.pixic.ru/i/M0c1b3s347410254.png
http://www.pixic.ru/i/80v1k3E3x7n192g6.png

0

3

Данные записи любезно предоставил сруль саломонович Где он пиз..л я не знаю

[24/192] Михаил Звездинский [WAV]

http://www.pixic.ru/i/50k103L3L7Z30365.png
http://www.pixic.ru/i/k0y1J3N3B7i33317.png
http://www.pixic.ru/i/X00123E3P763X328.png

https://yadi.sk/mail/?hash=ERVZL3Z59JNs67wx0gvTx0mOhAOACDI/rGK6rsFoNcw=&uid=252251247

https://yadi.sk/mail/?hash=ERVZL3Z59JNs67wx0gvTx0mOhAOACDI/rGK6rsFoNcw=&uid=252251247

0

4

Самозванец с вт который называет себя админ. муз. гр.
который раскачивает гов...и оскорбляя лоюдей постоянно кричит про сетевую этику
так вот тут соблюдена вся сет. этика. В самое ближайшее время мы увидем оц. этой записи от него ....

http://savepic.ru/13406042.png

я дам сылку на вт . чтоб рел пояснеил а на х..я козе баян ...
админ муз гр. вт оплатит рекл стороннего ресурса. и даст все скрины по этим записям
указав как и на чём произ. оц ....

http://www.vsetutonline.com/forum/showt … p?p=321044

0


Вы здесь » Tutnet-fufla » Шансон в форм. lossless » [24/96] Михаил Звездинский ‡Не падайте духом(1992) &