Это интересно Скрыть

Tutnet-fufla

Объявление

Информация о пользователе

Привет, Гость! Войдите или зарегистрируйтесь.


Вы здесь » Tutnet-fufla » Русская муз. Поп.дэнс.Ретро.фольк. » Красные маки (1983) Lossless


Красные маки (1983) Lossless

Сообщений 1 страница 3 из 3

1

Данный реал не украден а приватизирован у спившигося шизофреника с вт дмитрия . Который наз. себя Админ. муз. группы Банит и оскорбляет пользователей чиня беспредел. Который оскорбляет целые нации людей

[24/44,1] Красные маки (1983) Lossless
Красные маки (1983)
Жанр: ВИА
Носитель: MB
Год выпуска: 1983
Страна-производитель: СССР
Аудио кодек: FLAC
Тип рипа: tracks
Формат записи: 24/44,1
Формат раздачи: 24/44,1

Устройство воспроизведения: Катушечный магнитофон TEAC X-1000
Головка звукоснимателя: аморфная головка TEAC
Предварительный усилитель: встроенный
АЦП: M-Audio Audiophile 2496
Программа-оцифровщик: Sound Forge 6.0
Продолжительность: 41:25 (45:52 с допиской)
Оцифровка: grecofu

Треклист:

1 Красные маки (1983)
1 Лунатик
2 Время мчится
3 Свет погасшей звезды
4 Ни о чем не жалей
5 Звездный дилижанс
6 Чудо – это ты
7 Путешествие на туче
8 Дождь

2 А.Пугачева - Отражение в воде (дописка)
http://yadi.sk/d/lheu3EXVMpCbQ

0

2

Дмитрий Витальевич Если вы изъявите желание поговорить о сетевой этике я готов вас выслушать Но после того когда вы извинитесь перед людьми которых необосновано забанили и оскорбили.а также чтоб принёс извинения ваш мод. синдикат

0

3

СUE разметка по трекам:

Код:
REM GENRE "Ретро"
REM DATE 1983
TITLE "Магнитоальбом"
PERFORMER "Красные маки"
FILE "1 Красные маки 83.flac" WAVE
  TRACK 01 AUDIO
TITLE "Лунатик"
PERFORMER "Красные маки"
    INDEX 01 00:00:00
  TRACK 02 AUDIO
TITLE "Время мчится"
PERFORMER "Красные маки"
    INDEX 01 04:58:68
  TRACK 03 AUDIO
TITLE "Свет погасшей звезды"
PERFORMER "Красные маки"
    INDEX 01 10:16:32
  TRACK 04 AUDIO
TITLE "Ни о чем не жалей"
PERFORMER "Красные маки"
    INDEX 01 17:28:19
  TRACK 05 AUDIO
TITLE "Звездный дилижанс"
PERFORMER "Красные маки"
    INDEX 01 21:41:13
  TRACK 06 AUDIO
TITLE "Чудо – это ты"
PERFORMER "Красные маки"
    INDEX 01 26:27:42
  TRACK 07 AUDIO
TITLE "Путешествие на туче"
PERFORMER "Красные маки"
    INDEX 01 31:20:73
  TRACK 08 AUDIO
TITLE "Дождь"
PERFORMER "Красные маки"
    INDEX 01 35:38:54
FILE "2 А.Пугачева 85 - Отражение в воде.flac" WAVE
TRACK 09 AUDIO
TITLE "Отражение в воде"
PERFORMER "Алла Пучачева"
    INDEX 01 00:00:01

http://savepic.ru/11686285.jpg

0


Вы здесь » Tutnet-fufla » Русская муз. Поп.дэнс.Ретро.фольк. » Красные маки (1983) Lossless