Это интересно Скрыть

Tutnet-fufla

Объявление

Информация о пользователе

Привет, Гость! Войдите или зарегистрируйтесь.


Вы здесь » Tutnet-fufla » Русская муз. Поп.дэнс.Ретро.фольк. » Маленькая Вера-Назло своей судьбе‡(1991) (lossless)&


Маленькая Вера-Назло своей судьбе‡(1991) (lossless)&

Сообщений 1 страница 2 из 2

1

(24/96) Маленькая Вера - Назло своей судьбе (1991) (lossless)

http://savepic.ru/12176430.png

Группа Маленькая Вера - была создана в 1991 году в Москве. Начала творить
под руководством Роберта и Михаил Болотных. Ее история началась в 1991, когда
Роберт организовал молодежный центр музыки "Синяя птица" и поставил себя его директором.
При центре появились молодые имена - группы "Маленькая Вера", а также"Лицей".
Группа Маленькая Вера - первая из групп, что были созданы в центре Синяя птица.

Смысла в названии группы мало. Оно вовсе к тому же не отражает тематику песен,
которые создавал коллектив. Трудно поверить, но музыка группы была не самой женственной.
Мелодии творений этого коллектива вызывают похвалы.

Оц - Борис 63с вт 
Магнитафон готовится к оправке А.И

http://savepic.ru/12184622.png

Маленькая Вера - Назло своей судьбе 1991

01.Назло своей судьбе
02.Цыганка
03.Кораблик мечты
04.Май
05.Окончен бал
06.Игрушка
07.Рассвет закат
08.Парад планет
09.Ежик в тумане
Дописка
10.? - Старый пруд
11.? - ?

https://yadi.sk/mail/?hash=9rlxqmP7X3nrBfV0t7FbH/KyQGT54p78qlA5ehGT7fs=&uid=423865181

0

2

REM GENRE "Поп"
REM DATE 1991
REM COMMENT "Оцифровка - Борис 63"
TITLE "Назло своей судьбе"
PERFORMER "Маленькая Вера"
FILE "Маленькая Вера.flac" WAVE
  TRACK 01 AUDIO
TITLE "Назло своей судьбе"
PERFORMER "Маленькая Вера"
    INDEX 01 00:00:00
  TRACK 02 AUDIO
TITLE "Цыганка"
PERFORMER "Маленькая Вера"
    INDEX 01 05:30:55
  TRACK 03 AUDIO
TITLE "Кораблик мечты"
PERFORMER "Маленькая Вера"
    INDEX 01 10:16:55
  TRACK 04 AUDIO
TITLE "Май"
PERFORMER "Маленькая Вера"
    INDEX 01 14:25:41
  TRACK 05 AUDIO
TITLE "Окончен бал"
PERFORMER "Маленькая Вера"
    INDEX 01 19:04:11
  TRACK 06 AUDIO
TITLE "Игрушка"
PERFORMER "Маленькая Вера"
    INDEX 01 23:30:47
  TRACK 07 AUDIO
TITLE "Рассвет-закат"
PERFORMER "Маленькая Вера"
    INDEX 01 27:29:66
  TRACK 08 AUDIO
TITLE "Парад планет"
PERFORMER "Маленькая Вера"
    INDEX 01 31:44:50
  TRACK 09 AUDIO
TITLE "Ежик в тумане"
PERFORMER "Маленькая Вера"
    INDEX 01 35:02:18
  TRACK 10 AUDIO
TITLE "Старый пруд"
PERFORMER "-"
    INDEX 01 40:17:63
  TRACK 11 AUDIO
TITLE "-"
PERFORMER "-"
    INDEX 01 44:42:08

0


Вы здесь » Tutnet-fufla » Русская муз. Поп.дэнс.Ретро.фольк. » Маленькая Вера-Назло своей судьбе‡(1991) (lossless)&