Это интересно Скрыть

Tutnet-fufla

Объявление

Информация о пользователе

Привет, Гость! Войдите или зарегистрируйтесь.


Вы здесь » Tutnet-fufla » Русская муз. Поп.дэнс.Ретро.фольк. » (24/96) Марина Львовская - Марина


(24/96) Марина Львовская - Марина

Сообщений 1 страница 10 из 10

1

(24/96) Марина Львовская - Марина (Marina Lvovskaya ?– Marina) 198(?) год (lossless)

01. Wheels Are Turning / Стучат колёса
02. Deserted Beach / Забытый пляж
03. Love Me As I Am / Люби меня такой
04. Those Blue Eyes Of Yours / Лишь голубые глаза твои
05. Red Arrow Express / Красная стрела
06. Everything 'll Be All Right / Всё будет хорошо
07. Yarmarka / Ярмарка
08. Old Letter / Старое письмо
09. Give Me The Clue / Дай мне ключ
10. That's Not True / Это неправда
11. Forget / Забудь

Оцифровка Борис 63 с катушки купленной Александром (Вит70
Спасибо

https://yadi.sk/mail/?hash=E205K6vlkTkgaM89o2ea10IM89PXXE3cTLkVkhXENSM=&uid=423865181

REM GENRE "Pop, Rock, Chanson"
REM DATE 1986
REM COMMENT "Оцифровка - Борис 63, катушка - Вит70"
TITLE "Marina"
PERFORMER "Марина Львовская"
FILE "Львовская 86.flac" WAVE
  TRACK 01 AUDIO
TITLE "Wheels Are Turning (Стучат колёса)"
PERFORMER "Марина Львовская"
    INDEX 01 00:00:00
  TRACK 02 AUDIO
TITLE "Deserted Beach (Забытый пляж)"
PERFORMER "Марина Львовская"
    INDEX 01 04:06:07
  TRACK 03 AUDIO
TITLE "Love Me As I Am (Люби меня такой)"
PERFORMER "Марина Львовская"
    INDEX 01 08:36:66
  TRACK 04 AUDIO
TITLE "Those Blue Eyes Of Yours (Лишь голубые глаза твои)"
PERFORMER "Марина Львовская"
    INDEX 01 12:05:55
  TRACK 05 AUDIO
TITLE "Red Arrow Express (Красная стрела)"
PERFORMER "Марина Львовская"
    INDEX 01 15:39:52
  TRACK 06 AUDIO
TITLE "Everything 'll Be All Right (Всё будет хорошо)"
PERFORMER "Марина Львовская"
    INDEX 01 19:43:02
  TRACK 07 AUDIO
TITLE "Yarmarka (Ярмарка)"
PERFORMER "Марина Львовская"
    INDEX 01 23:12:47
  TRACK 08 AUDIO
TITLE "Old Letter (Старое письмо)"
PERFORMER "Марина Львовская"
    INDEX 01 27:19:04
  TRACK 09 AUDIO
TITLE "Give Me The Clue (Дай мне ключ)"
PERFORMER "Марина Львовская"
    INDEX 01 31:16:33
  TRACK 10 AUDIO
TITLE "That's Not True (Это неправда)"
PERFORMER "Марина Львовская"
    INDEX 01 35:16:57
  TRACK 11 AUDIO
TITLE "Forget (Забудь)"
PERFORMER "Марина Львовская"
    INDEX 01 39:02:23
  TRACK 12 AUDIO
TITLE "Инструментал (фрагмент)"
PERFORMER "Анонс"
    INDEX 01 43:09:16

0

2

Марина Львовская - Последний раз (1986) (Lossless)
.
Марина Львовская - Последний раз (1986)

Исполнитель: Марина Львовская
Альбом: Последний раз
Год выпуска: 1986
Время звучания: 00: 41:50
Жанр: Шансон
Формат: WAV
Качество: Lossless
Размер архива: 278,0 мб
Язык релиза: русский

Содержание:

01 - Стучат Колёса
02 - Последний Раз
03 - А ты люби меня такой
04 - Лишь голубые глаза
05 – Красная Стрела (Где взять мне силы)
06 - Наверно мы сошли с ума
07 – Ярмарка (Этой ярмарки краски)
08 - Хранят так много дорогого
09 - Летом и зимою
10 - Свет в глазах твоих
11 - Забудь

Комментарий к релизу:
Полный размер релиза - 422,0 mb
Оцифровка albufeira

Cкачать: https://yadi.sk/d/lJXCtPUs1z9IV

Вот этого спившегося негодяя с вт можете послать прям там в теме
и спросить а для чего он такую обл. приляпал . Ну полный дебил

димуля а где тут WAV ??????

=Spoiler написал(а):

http://www.pixic.ru/i/c031a313W5r13179.png
http://www.pixic.ru/i/v0Y1l3o3Y51102V1.png
ДИМУЛЯ ПРИДУРОК ВОТ ТУТ КУПИ МОГУ ССЫЛКУ ДАТЬ
http://www.pixic.ru/i/v0117303V5413232.png

0

3


Все благодарности -  SVSSTUDIO Спасибо Вам

Марина Львовская - Любимые песни
pic
Жанр: Шансон
Год выпуска диска: 1995
Производитель диска: США (Нью-Йорк, Брайтон Бич)
Аудио кодек: FLAC
Тип рипа: image+.cue
Битрейт аудио: lossless
Продолжительность: 40:19

01. Отойди от окна моего
02. Ты помнишь наши встречи
03. Лишь голубые глаза твои
04. Осенние дожди
05. Дельфины
06. Бамбалейо
07. Старое письмо
08. Не меняйте любимых
09. Мой милый друг
10. Забытый пляж 

Скрытый текст:

Для просмотра скрытого текста - войдите или зарегистрируйтесь.


http://www.pixic.ru/i/p0V14363b5j1P2m8.jpg
http://www.pixic.ru/i/D0z193A3J5V133B0.jpg
http://www.pixic.ru/i/F0X1E3S3F5j1e391.jpg

0

4

Специально зарегистрировался, чтобы выразить признательность за выложенный материал 85-86 г.г. Более качественного материала я пока нигде еще в сети не находил. Спасибо!

Оцифровка "от albufeira" скачивается со скоростью 64к, это так невыносимо!.. :'( Может быть возможно перевыложить на другой ресурс?  :rolleyes:

И вопросик. При оцифровке первого варианта "от Бориса" был включен шумодав на магнитофоне, с которого оцифровывали или не был?

Да ... скачал пару песен с варианта "от albufeira" - то что в сети гуляет, качество на порядок хуже. А жаль, там есть пару вещей, которых нет "у Бориса"... или я ошибаюсь и треклист одинаковый, только названия песен разные?

Ну ладно, всё равно прекрасно, что нашел такую чудную оцифровку №1. :cool:

Отредактировано Tarach (2017-02-28 01:24:12)

0

5

http://i91.fastpic.ru/big/2017/0228/5e/72d786dfff2b6d583d917ad4f919795e.jpg
http://i91.fastpic.ru/big/2017/0228/0b/5b5c3d805e77e8f72f82a09ea8acb30b.jpg

Отредактировано Tarach (2017-02-28 01:39:53)

0

6

ссылка от альбуфкрии

https://cloud.mail.ru/public/D2ia/QPUUBArs3

0

7

Сообщение для Aleksandr Спасибо.

Отредактировано Tarach (2017-02-28 19:12:17)

0

8

Сообщение для Tarach Да не за что слушайте музыку ту которая Вам нравится .

0

9

0

10

Треклист полностью соответсвует оригинальной пластинке.

Названия оригинальных песен, перепетых Мариной, такие:

1. Стучат колёса (гр. Стаса Намина "Цветы")
2. После праздника (Валерий Леонтьев)
3. А ты люби (гр. Стаса Намина "Цветы")
4. ?Лишь голубые глаза твои? (не определено)
5. Красная стрела (София Ротару)
6. Затмение сердца (Валерий Леонтьев)
7. Ярмарки (Валерий Леонтьев, Марыля Родович)
8. Старые письма (Клавдия Шульженко)
9. Что ты хочешь мне сказать? (гр. "Веселые ребята", солист А.Барыкин)
10. Это неправда (Ксения Георгиади)
11. Забудь обратную дорогу (Лили Иванова)

Отредактировано Tarach (2017-03-08 11:09:36)

0


Вы здесь » Tutnet-fufla » Русская муз. Поп.дэнс.Ретро.фольк. » (24/96) Марина Львовская - Марина