Это интересно Скрыть

Tutnet-fufla

Информация о пользователе

Привет, Гость! Войдите или зарегистрируйтесь.


Вы здесь » Tutnet-fufla » Сборники шансон mp3 . Lossless » (24/96) Два хрипатых‡дуэты (гитарник) (lossless)&


(24/96) Два хрипатых‡дуэты (гитарник) (lossless)&

Сообщений 1 страница 3 из 3

1

(24/96) Два хрипатых -дуэты (гитарник) (lossless)


Оцифровка с кассеты.
Кассета прислана из USA

!

Треклист:

Сторона А:

01 ? - Без Подола Киев невозможен
02 ? - В палатках жить, то нам не привыкать...
03 ? - Снова четверг... (О песнях, которые не пели)
04 ? - А всё-таки хочется жить!
05 ? - Заморозки
06 ? - Бабушка пирата
07 ? - Кораблик
08 ? - Корабельная песня (Колотун)
09 ? - Навострите ваши уши...
10 ? - Капель
11 ? - О Гренаде
12 ? - Горизонт
13 ? - В Бразилию
14 ? - Пародия (укр.)
15 ? - А по-французски 'женщина'...
16 ? - Женская песня
17 ? - Гори, гори любовь цыганки
18 ? - Прохладная осень
19 ? - Спокойной ночи
20 ? - Графиня, не приснились Ваши зубы
21 ? - Собачка

Сторона Б:

01 ? - Водосточная труба
02 ? - Любовь у меня одна
03 ? - Виноградная косточка
04 ? - Ты грустишь
05 ? - Океан не ворчи, не пугай
06 ? - Жираф
07 ? - Подожди, приятель!
08 ? - Налейте чару мне
09 ? - На пьяном скакуне
10 ? - Опоздал на проходной
11 ? - Ночь настаёт
12 ? - Расставанье
13 ? - Не могу понять!
.......................................................

REM GENRE "Автор. песня"
REM COMMENT "Оцифровка - Борис 63"
TITLE "Магнитозапись"
PERFORMER "?"
FILE "1 ст.flac" WAVE
  TRACK 01 AUDIO
TITLE "Без Подола Киев невозможен"
PERFORMER "?"
    INDEX 01 00:02:20
TRACK 02 AUDIO
TITLE "В палатках жить, то нам не привыкать..."
PERFORMER "?"
    INDEX 01 02:13:57
  TRACK 03 AUDIO
TITLE "Снова четверг... (О песнях, которые не пели)"
PERFORMER "?"
    INDEX 01 04:19:41
  TRACK 04 AUDIO
TITLE "А всё-таки хочется жить!"
PERFORMER "?"
    INDEX 01 05:24:09
  TRACK 05 AUDIO
TITLE "Заморозки"
PERFORMER "?"
    INDEX 01 07:34:68
  TRACK 06 AUDIO
TITLE "Бабушка пирата"
PERFORMER "?"
    INDEX 01 09:39:59
  TRACK 07 AUDIO
TITLE "Кораблик"
PERFORMER "?"
    INDEX 01 11:10:29
  TRACK 08 AUDIO
TITLE "Корабельная песня (Колотун)"
PERFORMER "?"
    INDEX 01 12:52:06
  TRACK 09 AUDIO
TITLE "Навострите ваши уши..."
PERFORMER "?"
    INDEX 01 15:20:12
  TRACK 10 AUDIO
TITLE "Капель"
PERFORMER "?"
    INDEX 01 17:04:21
  TRACK 11 AUDIO
TITLE "О Гренаде"
PERFORMER "?"
    INDEX 01 19:40:52
  TRACK 12 AUDIO
TITLE "Горизонт"
PERFORMER "?"
    INDEX 01 22:13:41
  TRACK 13 AUDIO
TITLE "В Бразилию"
PERFORMER "?"
    INDEX 01 25:33:59
  TRACK 14 AUDIO
TITLE "Пародия (укр.)"
PERFORMER "?"
    INDEX 01 26:46:66
  TRACK 15 AUDIO
TITLE "А по-французски 'женщина'..."
PERFORMER "?"
    INDEX 01 28:33:21
  TRACK 16 AUDIO
TITLE "Женская песня"
PERFORMER "?"
    INDEX 01 31:51:57
  TRACK 17 AUDIO
TITLE "Гори, гори любовь цыганки"
PERFORMER "?"
    INDEX 01 33:30:60
  TRACK 18 AUDIO
TITLE "Прохладная осень"
PERFORMER "?"
    INDEX 01 35:33:48
  TRACK 19 AUDIO
TITLE "Спокойной ночи"
PERFORMER "?"
    INDEX 01 39:02:19
  TRACK 20 AUDIO
TITLE "Графиня, не приснились Ваши зубы"
PERFORMER "?"
    INDEX 01 39:48:69
  TRACK 21 AUDIO
TITLE "Собачка"
PERFORMER "?"
    INDEX 01 42:37:55
Магнитозапись-2.cue

Код:
REM GENRE "Автор. песня"
REM COMMENT "Оцифровка - Борис 63"
TITLE "Магнитозапись"
PERFORMER "?"
FILE "2 ст.flac" WAVE
  TRACK 01 AUDIO
TITLE "Водосточная труба"
PERFORMER "?"
    INDEX 01 00:03:63
  TRACK 02 AUDIO
TITLE "Любовь у меня одна"
PERFORMER "?"
    INDEX 01 02:40:11
  TRACK 03 AUDIO
TITLE "Виноградная косточка"
PERFORMER "?"
    INDEX 01 04:32:58
  TRACK 04 AUDIO
TITLE "Ты грустишь"
PERFORMER "?"
    INDEX 01 07:21:50
  TRACK 05 AUDIO
TITLE "Океан не ворчи, не пугай"
PERFORMER "?"
    INDEX 01 10:30:07
  TRACK 06 AUDIO
TITLE "Жираф"
PERFORMER "?"
    INDEX 01 12:53:42
  TRACK 07 AUDIO
TITLE "Подожди, приятель!"
PERFORMER "?"
    INDEX 01 15:38:60
  TRACK 08 AUDIO
TITLE "Налейте чару мне"
PERFORMER "?"
    INDEX 01 17:25:68
  TRACK 09 AUDIO
TITLE "На пьяном скакуне"
PERFORMER "?"
    INDEX 01 19:52:25
  TRACK 10 AUDIO
TITLE "Опоздал на проходной"
PERFORMER "?"
    INDEX 01 23:08:12
  TRACK 11 AUDIO
TITLE "Ночь настаёт"
PERFORMER "?"
    INDEX 01 24:55:40
  TRACK 12 AUDIO
TITLE "Расставанье"
PERFORMER "?"
    INDEX 01 27:15:38
  TRACK 13 AUDIO
TITLE "Не могу понять!"
PERFORMER "?"
    INDEX 01 31:50:10

     

Ссылка FLAC+CUE:

https://yadi.sk/mail/?hash=7jcqSn3ETasLcfBBPyoLOnjnQ+xG6rhC9BWqVQMqXmk=&uid=423865181

https://yadi.sk/mail/?hash=djO2a0738N4Ht0kIgN/Xi3thdxGzd9BNR18tlQSOiaI=&uid=423865181

0

2

Боря Здравствуй ... Давай обратно отправим в Америку и чтоб они компенсировали затраты ...
такого гов...а инт. и все муз. ресурсы не видели .... и скажи димули пусть 35 трек вернёт ....

0

3

http://savepic.ru/12434336.jpg

0


Вы здесь » Tutnet-fufla » Сборники шансон mp3 . Lossless » (24/96) Два хрипатых‡дуэты (гитарник) (lossless)&