Tutnet-fufla

Объявление

Введите здесь ваше объявление.

Информация о пользователе

Привет, Гость! Войдите или зарегистрируйтесь.


Вы здесь » Tutnet-fufla » Шансон нашей молодости » (32/96) Слепые Курские Соловьи‡Магнитоальбом 1973 г. &


(32/96) Слепые Курские Соловьи‡Магнитоальбом 1973 г. &

Сообщений 1 страница 2 из 2

1

Здравствуйте парни . Не спешите скачивать сначала прочтите .
Вся сетевая этика о которой орёт спившийся шизофреник соблюдена . Со слов этого муд...а который банит и оскорбляет
людей на вт обсуждать эти записи нельзя . Не приведи господь если выскажишь своё мнение из его уст
польётся всё гов...о
Данные записи Дал Борису 63 его приятель с другого ресурса За что ему Спасибо. Но не прошло и часа
как сруль саломонович он же дмитрий влез своим рылом в оц. перезалив её

http://savepic.ru/12505354.png

http://savepic.ru/12506379.pnghttp://savepic.ru/12493067.jpg

Скачивать или нет решать Вам . Но обосравшись в одной теме и забанив человека
за то что тот выставил правильный трек лист к альбому Решил раскачать новые гов...и
Вот это один трек с этой записи .. Чтоб понимали те кто сидит на трафике .что выставил этот шизофреник сруль саломонович


Случай
в Курске.wa
v

https://yadi.sk/d/2MbErcZw324q6W

0

2

(32/96) Слепые Курские Соловьи - Магнитоальбом ~ 1973 год (lossless)

Треклист:

Сторона А:

01 Слепые Курские Соловьи - Крепкое русское слово
02 Слепые Курские Соловьи - Не вычеркнуть из жизни эту ночь
03 Слепые Курские Соловьи - Волны охотские плещут, шумят
04 Слепые Курские Соловьи - В далекой сказочной и знойной Аргентине
05 Слепые Курские Соловьи - Это было в старину под Ростовом-на-Дону
06 Слепые Курские Соловьи - Мне мать гитару подарила
07 Слепые Курские Соловьи - Случай в Курске
08 Слепые Курские Соловьи - Сероглазая шалунья
09 Слепые Курские Соловьи - Так не мучь ты меня
10 Слепые Курские Соловьи - Тихий вечер, хороший, снег пушистый летает...
11 Слепые Курские Соловьи - Стал длиннее день, к нам Весна идёт
12 Слепые Курские Соловьи - Помнишь мы гуляли вместе в городском саду (Людочка)

13 ВИА Южные мальчики А.Грозыкин - Тёща моя
14 ВИА Южные мальчики А.Грозыкин - Ты пришла и я пришёл...

15 Людмила Барыкина и ВИА 'Надежда' - Такая вот любовь в 17 лет!

16 Михаил Круг - Прокурору зелёному - слава!

Сторона Б:

01 Слепые Курские Соловьи - Много девушек хороших
02 Слепые Курские Соловьи - Зимний вечер
03 Слепые Курские Соловьи - Сигарета
04 Слепые Курские Соловьи - Алёнка
05 Слепые Курские Соловьи - Плачет девочка в автомате...
06 Слепые Курские Соловьи - Родник
07 Слепые Курские Соловьи - Колокола
08 Слепые Курские Соловьи - На старинном иркутском вокзале
09 Слепые Курские Соловьи - Почему же ты замужем
10 Слепые Курские Соловьи - Белый пух тополей
11 Слепые Курские Соловьи - Поезд в белых облаках тумана...
12 Слепые Курские Соловьи - Песня о золотой рыбке

13 ВИА Южные мальчики А.Грозыкин - Семнадцать с половиною
14 ВИА Южные мальчики А.Грозыкин - Голубоглазая моя
15 ВИА Южные мальчики А.Грозыкин - Манушак (В том большом саду где цветут цветы)

Коментарии шизофреника с вт сруля саломоновича


Борис 63, скачал наконец-таки, очень хорошая оцифровка от Бориса
с сайта РТ 22,
грамотный звук, если не считать наводок и мелких артефактов,
скорей всего от неэкранированного ПК
надо было указать с чего подавали и оборудование для оцифровки.
Сама же копия, как уж есть.


https://yadi.sk/d/QDi6ltFY324FcG
https://yadi.sk/d/Te-8v8iT324FcB

https://yadi.sk/mail/?hash=bIbkpF/hgXy27ksp4B2YcBtrM5E90zbrH7pim3ISLXc=&uid=252251247
https://yadi.sk/mail/?hash=cOTxAQkU61QjMNRqI2ZnaHi8JEl9h4yAK3ICJ+EgTCU=&uid=252251247

Слепые курские соловьи -1.cue

Код:
REM GENRE "Подпольный магнитиздат, дворовая песня"
REM DATE 1973
REM COMMENT "Оцифровка - Борис 63"
TITLE "Магнитоальбом"
PERFORMER "Слепые Курские Соловьи"
FILE "1.wav" WAVE
  TRACK 01 AUDIO
TITLE "Крепкое русское слово"
PERFORMER "Слепые Курские Соловьи"
    INDEX 01 00:21:56
  TRACK 02 AUDIO
TITLE "Не вычеркнуть из жизни эту ночь"
PERFORMER "Слепые Курские Соловьи"
    INDEX 01 02:56:06
  TRACK 03 AUDIO
TITLE "Волны охотские плещут, шумят"
PERFORMER "Слепые Курские Соловьи"
    INDEX 01 07:57:40
  TRACK 04 AUDIO
TITLE "В далекой сказочной и знойной Аргентине"
PERFORMER "Слепые Курские Соловьи"
    INDEX 01 10:33:61
  TRACK 05 AUDIO
TITLE "Это было в старину под Ростовом-на-Дону"
PERFORMER "Слепые Курские Соловьи"
    INDEX 01 13:44:64
  TRACK 06 AUDIO
TITLE "Мне мать гитару подарила"
PERFORMER "Слепые Курские Соловьи"
    INDEX 01 17:55:50
  TRACK 07 AUDIO
TITLE "Случай в Курске"
PERFORMER "Слепые Курские Соловьи"
    INDEX 01 21:08:14
  TRACK 08 AUDIO
TITLE "Сероглазая шалунья"
PERFORMER "Слепые Курские Соловьи"
    INDEX 01 26:14:71
  TRACK 09 AUDIO
TITLE "Так не мучь ты меня"
PERFORMER "Слепые Курские Соловьи"
    INDEX 01 28:59:35
  TRACK 10 AUDIO
TITLE "Тихий вечер, хороший, снег пушистый летает..."
PERFORMER "Слепые Курские Соловьи"
    INDEX 01 31:22:28
  TRACK 11 AUDIO
TITLE "Стал длиннее день, к нам Весна идёт"
PERFORMER "Слепые Курские Соловьи"
    INDEX 01 34:34:10
  TRACK 12 AUDIO
TITLE "Помнишь мы гуляли вместе в городском саду (Людочка)"
PERFORMER "Слепые Курские Соловьи"
    INDEX 01 36:37:65
  TRACK 13 AUDIO
TITLE "Тёща моя"
PERFORMER "ВИА Южные мальчики А.Грозыкин"
    INDEX 01 39:37:72
  TRACK 14 AUDIO
TITLE "Ты пришла и я пришёл..."
PERFORMER "ВИА Южные мальчики А.Грозыкин"
    INDEX 01 41:15:05
  TRACK 15 AUDIO
TITLE "Такая вот любовь в 17 лет!"
PERFORMER "Людмила Барыкина и ВИА 'Надежда'"
    INDEX 01 43:35:31
  TRACK 16 AUDIO
TITLE "Прокурору зелёному - слава!"
PERFORMER "Михаил Круг"
    INDEX 01 45:13:29

Слепые курские соловьи -2.cue

Код:
REM GENRE "Подпольный магнитиздат, дворовая песня"
REM DATE 1973
REM COMMENT "Оцифровка - Борис 63"
TITLE "Магнитоальбом"
PERFORMER "Слепые Курские Соловьи"
FILE "2.wav" WAVE
  TRACK 01 AUDIO
TITLE "Много девушек хороших"
PERFORMER "Слепые Курские Соловьи"
    INDEX 01 00:11:13
  TRACK 02 AUDIO
TITLE "Зимний вечер"
PERFORMER "Слепые Курские Соловьи"
    INDEX 01 01:33:73
  TRACK 03 AUDIO
TITLE "Сигарета"
PERFORMER "Слепые Курские Соловьи"
    INDEX 01 04:35:15
  TRACK 04 AUDIO
TITLE "Алёнка"
PERFORMER "Слепые Курские Соловьи"
    INDEX 01 07:35:02
  TRACK 05 AUDIO
TITLE "Плачет девочка в автомате..."
PERFORMER "Слепые Курские Соловьи"
    INDEX 01 11:14:53
  TRACK 06 AUDIO
TITLE "Родник"
PERFORMER "Слепые Курские Соловьи"
    INDEX 01 13:15:18
  TRACK 07 AUDIO
TITLE "Колокола"
PERFORMER "Слепые Курские Соловьи"
    INDEX 01 17:04:24
  TRACK 08 AUDIO
TITLE "На старинном иркутском вокзале"
PERFORMER "Слепые Курские Соловьи"
    INDEX 01 19:34:44
  TRACK 09 AUDIO
TITLE "Почему же ты замужем"
PERFORMER "Слепые Курские Соловьи"
    INDEX 01 24:50:68
  TRACK 10 AUDIO
TITLE "Белый пух тополей"
PERFORMER "Слепые Курские Соловьи"
    INDEX 01 27:22:10
  TRACK 11 AUDIO
TITLE "Поезд в белых облаках тумана..."
PERFORMER "Слепые Курские Соловьи"
    INDEX 01 30:28:50
  TRACK 12 AUDIO
TITLE "Песня о золотой рыбке"
PERFORMER "Слепые Курские Соловьи"
    INDEX 01 33:14:16
  TRACK 13 AUDIO
TITLE "Семнадцать с половиною"
PERFORMER "ВИА Южные мальчики А.Грозыкин"
    INDEX 01 36:24:14
  TRACK 14 AUDIO
TITLE "Голубоглазая моя"
PERFORMER "ВИА Южные мальчики А.Грозыкин"
    INDEX 01 39:01:41
  TRACK 15 AUDIO
TITLE "Манушак (В том большом саду где цветут цветы)"
PERFORMER "ВИА Южные мальчики А.Грозыкин"
    INDEX 01 42:29:17

0


Вы здесь » Tutnet-fufla » Шансон нашей молодости » (32/96) Слепые Курские Соловьи‡Магнитоальбом 1973 г. &