Tutnet-fufla

Объявление

Уважаемые Гости Чтоб общаться в Чате Зайдите и зарегистрируйтесь

Информация о пользователе

Привет, Гость! Войдите или зарегистрируйтесь.


Вы здесь » Tutnet-fufla » Зарубежная музыка .Отечественная Поп музыка ( » (24/96) Toto Cutugno -the very best ‡(lossless)&


(24/96) Toto Cutugno -the very best ‡(lossless)&

Сообщений 1 страница 2 из 2

1

(24/96) Toto Cutugno -the very best (lossless)

http://www.pixic.ru/i/40K1A3837753E7F1.png

Оцифровка Борис 63 с кассеты
Подача - кассетная дека Akai gx 75mk2

http://www.pixic.ru/i/d0y1A33377Y3m7J2.png
http://www.pixic.ru/i/o0M1u3L327Y3a764.png

https://yadi.sk/mail/?hash=KlvU9McxQBfxMzaYRl4NpqE+VWIyC79nOyhuCmrV0yM=&uid=423865181

0

2

REM GENRE "Pop"
REM COMMENT "Оцифровка - Борис 63"
TITLE "The Very BEST"
PERFORMER "Toto Cutungo"
FILE "Тото.flac" WAVE
  TRACK 01 AUDIO
TITLE "L'Italiano"
PERFORMER "Toto Cutungo"
    INDEX 01 00:00:70
  TRACK 02 AUDIO
TITLE "Africa"
PERFORMER "Toto Cutungo"
    INDEX 01 03:59:35
  TRACK 03 AUDIO
TITLE "Solo Noi"
PERFORMER "Toto Cutungo"
    INDEX 01 07:14:09
  TRACK 04 AUDIO
TITLE "Soli"
PERFORMER "Toto Cutungo"
    INDEX 01 11:18:57
  TRACK 05 AUDIO
TITLE "Donna Donna Mia"
PERFORMER "Toto Cutungo"
    INDEX 01 15:22:63
  TRACK 06 AUDIO
TITLE "Tu Sie Mia"
PERFORMER "Toto Cutungo"
    INDEX 01 18:24:35
  TRACK 07 AUDIO
TITLE "Serenata"
PERFORMER "Toto Cutungo"
    INDEX 01 21:47:13
  TRACK 08 AUDIO
TITLE "Voglio L'Anima"
PERFORMER "Toto Cutungo"
    INDEX 01 25:38:03
  TRACK 09 AUDIO
TITLE "Liberti"
PERFORMER "Toto Cutungo"
    INDEX 01 29:12:36
  TRACK 10 AUDIO
TITLE "Innamorari"
PERFORMER "Toto Cutungo"
    INDEX 01 33:22:70
  TRACK 11 AUDIO
TITLE "La Mia Musica"
PERFORMER "Toto Cutungo"
    INDEX 01 37:19:34
  TRACK 12 AUDIO
TITLE "Simfonia"
PERFORMER "Toto Cutungo"
    INDEX 01 41:39:12
  TRACK 13 AUDIO
TITLE "Ni Amavo"
PERFORMER "Toto Cutungo"
    INDEX 01 46:12:47
  TRACK 14 AUDIO
TITLE "America"
PERFORMER "Toto Cutungo"
    INDEX 01 49:39:24
  TRACK 15 AUDIO
TITLE "Flach"
PERFORMER "Toto Cutungo"
    INDEX 01 53:12:52

0


Вы здесь » Tutnet-fufla » Зарубежная музыка .Отечественная Поп музыка ( » (24/96) Toto Cutugno -the very best ‡(lossless)&